(Classical) Sammartini, Handel - Sonatas for a German Flute - «Les Buffardins», Frank Theuns, Marc Hantai, Rainer Zipperling, Siebe Henstra - 2009, FLAC (image+.cue) lossless


 

[Цитировать]

Sammartini, Handel - Sonatas for a German Flute - «Les Buffardins», Frank Theuns, Marc Hantaï, Rainer Zipperling, Siebe Henstra
Жанр: Classical
Страна-производитель диска: Belgium
Год издания диска: 2009
Издатель (лейбл): Accent
Номер по каталогу: ACC24191
Дата записи: 2008
Аудиокодек: FLAC
Тип рипа: image+.cue
Битрейт аудио: lossless
Продолжительность: 62:26
Источник: собственный рип
Наличие сканов в содержимом раздачи: да
Треклист:
Giuseppe Sammartini (1695–1750)
[1]-[4] Sonata in G major, Opus 13 No. 4
Georg Friedrich Händel (1685–1759)
[5]-[7] Sonata in B flat major, HWV 357 (transposed into C major)
Giuseppe Sammartini
[8]-[11] Sonata in A minor, Opus 2 No. 10
Georg Friedrich Händel
[12]-[14] Sonata (Trio) in F major, HWV 405 (transposed into D major)
Giuseppe Sammartini
[15]-[17] Sonata in A minor, Opus 1 parte seconda No. 4
Georg Friedrich Händel
[18]-[21] Sonata in C minor, HWV 366 (transposed into D minor)
Giuseppe Sammartini
[22]-[25] Sonata (Trio) No. 6 in D minor
from “XII Sonatas for two German flutes ... and thorough bass
Исполнители:
«Les Buffardins»
Frank Theuns transverse flute
Marc Hantaï transverse flute
Rainer Zipperling violoncello
Siebe Henstra harpsichord

Лог создания рипа

Exact Audio Copy V1.0 beta 3 from 29. August 2011
EAC extraction logfile from 18. March 2015, 1:48
Les Buffardins / Sammartini, Handel - Sonatas for a German Flute
Used drive : HL-DT-STDVDRAM GU70N Adapter: 0 ID: 0
Read mode : Secure
Utilize accurate stream : Yes
Defeat audio cache : Yes
Make use of C2 pointers : No
Read offset correction : 48
Overread into Lead-In and Lead-Out : No
Fill up missing offset samples with silence : Yes
Delete leading and trailing silent blocks : No
Null samples used in CRC calculations : Yes
Used interface : Native Win32 interface for Win NT & 2000
Used output format : User Defined Encoder
Selected bitrate : 128 kBit/s
Quality : High
Add ID3 tag : No
Command line compressor : C:\Program Files (x86)\Exact Audio Copy\Flac\flac.exe
Additional command line options : -V -8 -T "Date=%year%" -T "Genre=%genre%" %source%
TOC of the extracted CD
Track | Start | Length | Start sector | End sector
---------------------------------------------------------
1 | 0:00.00 | 3:26.24 | 0 | 15473
2 | 3:26.24 | 3:44.47 | 15474 | 32320
3 | 7:10.71 | 1:04.42 | 32321 | 37162
4 | 8:15.38 | 2:14.12 | 37163 | 47224
5 | 10:29.50 | 3:24.40 | 47225 | 62564
6 | 13:54.15 | 1:18.00 | 62565 | 68414
7 | 15:12.15 | 2:24.30 | 68415 | 79244
8 | 17:36.45 | 3:22.30 | 79245 | 94424
9 | 20:59.00 | 1:56.69 | 94425 | 103193
10 | 22:55.69 | 2:20.42 | 103194 | 113735
11 | 25:16.36 | 4:02.53 | 113736 | 131938
12 | 29:19.14 | 2:03.67 | 131939 | 141230
13 | 31:23.06 | 1:51.06 | 141231 | 149561
14 | 33:14.12 | 1:55.58 | 149562 | 158244
15 | 35:09.70 | 3:50.70 | 158245 | 175564
16 | 39:00.65 | 3:03.10 | 175565 | 189299
17 | 42:04.00 | 4:11.22 | 189300 | 208146
18 | 46:15.22 | 1:52.33 | 208147 | 216579
19 | 48:07.55 | 1:36.49 | 216580 | 223828
20 | 49:44.29 | 1:43.71 | 223829 | 231624
21 | 51:28.25 | 1:05.64 | 231625 | 236563
22 | 52:34.14 | 2:45.04 | 236564 | 248942
23 | 55:19.18 | 2:22.45 | 248943 | 259637
24 | 57:41.63 | 2:26.14 | 259638 | 270601
25 | 60:08.02 | 2:18.43 | 270602 | 280994
Range status and errors
Selected range
Filename C:\temp\Sammartini, Handel - Sonatas for a German Flute\Sammartini, Handel - Sonatas for a German Flute.wav
Peak level 100.0 %
Extraction speed 2.2 X
Range quality 99.9 %
Test CRC 094E0CCA
Copy CRC 094E0CCA
Copy OK
No errors occurred
AccurateRip summary
Track 1 not present in database
Track 2 not present in database
Track 3 not present in database
Track 4 not present in database
Track 5 not present in database
Track 6 not present in database
Track 7 not present in database
Track 8 not present in database
Track 9 not present in database
Track 10 not present in database
Track 11 not present in database
Track 12 not present in database
Track 13 not present in database
Track 14 not present in database
Track 15 not present in database
Track 16 not present in database
Track 17 not present in database
Track 18 not present in database
Track 19 not present in database
Track 20 not present in database
Track 21 not present in database
Track 22 not present in database
Track 23 not present in database
Track 24 not present in database
Track 25 not present in database
None of the tracks are present in the AccurateRip database
End of status report
==== Log checksum 80897CB8506D3D1F73DE8E9CBB987BD1C478645407A2E71A6A80D0B19D717F99 ====



Показать сообщения:    

Текущее время: 08-Дек 10:55

Часовой пояс: UTC + 3


Вы не можете начинать темы
Вы не можете отвечать на сообщения
Вы не можете редактировать свои сообщения
Вы не можете удалять свои сообщения
Вы не можете голосовать в опросах
Вы не можете прикреплять файлы к сообщениям
Вы не можете скачивать файлы