(Opera) Jules Massenet - Herodiade / Жюль Массне - Иродиада (Jesus Etcheverry; Robert Massard, Denise Scharley, Michele Le Bris, Guy Chauvet, Adrien Legros) (Highlights), 1961 - recorded at Paris / 1994, FLAC (tracks), lossless


 

[Цитировать]

Jules Massenet - Hérodiade / Жюль Массне - Иродиада (Jésus Etcheverry; Robert Massard, Denise Scharley, Michèle Le Bris, Guy Chauvet, Adrien Legros)
Жанр: Opera
Страна-производитель диска: Франция
Год издания диска: 1994
Издатель (лейбл): Accord
Дата записи: 1961
Аудиокодек: FLAC
Тип рипа: tracks
Битрейт аудио: lossless
Продолжительность: 58:37
Источник: релизер (Guillermo)
Исполнители:
Hérode - Robert Massard,
Hérodiade - Denise Scharley,
Salomé - Michèle Le Bris,
Jean - Guy Chauvet,
Phanuel - Adrien Legros.
Jésus Etcheverry, Conductor,
Chorus and Orchestre Lyrique de la ORTF.
Recoded at Salle Wagram, Paris, 1961.

Треклист

1. "Il est doux, il est bon''
2. "Herod! Ne me refuse pas"
3. "Jean, je le revois"
4. "Vision fugitive"
5. "Astres etincelants"
6. "Charme des jours passes"
7. "Salome, laisse-moi t'aimer"
8. "Ne pouvant reprimer les elas de la foi"
9. "Quand nos jours s'eteindront"
10. "Ballet music"

Лог создания рипа

Exact Audio Copy V1.0 beta 3 from 29. August 2011
EAC extraction logfile from 20. March 2015, 17:14
Artista desconocido / Título desconocido
Used drive : HL-DT-STDVDRAM GH22NS50 Adapter: 3 ID: 0
Read mode : Secure
Utilize accurate stream : Yes
Defeat audio cache : No
Make use of C2 pointers : Yes
Read offset correction : 667
Overread into Lead-In and Lead-Out : No
Fill up missing offset samples with silence : Yes
Delete leading and trailing silent blocks : Yes
Null samples used in CRC calculations : Yes
Used interface : Native Win32 interface for Win NT & 2000
Gap handling : Appended to previous track
Used output format : User Defined Encoder
Selected bitrate : 768 kBit/s
Quality : High
Add ID3 tag : No
Command line compressor : C:\Program Files (x86)\Exact Audio Copy\FLAC\FLAC.EXE
Additional command line options : -8 -V -T "ARTIST=%artist%" -T "TITLE=%title%" -T "ALBUM=%albumtitle%" -T "DATE=%year%" -T "TRACKNUMBER=%tracknr%" -T "GENRE=%genre%" -T "PERFORMER=%albuminterpret%" -T "COMPOSER=%composer%" %haslyrics%--tag-from-file=LYRICS="%lyricsfile%"%haslyrics% -T "ALBUMARTIST=%albumartist%" -T "DISCNUMBER=%cdnumber%" -T "TOTALDISCS=%totalcds%" -T "TOTALTRACKS=%numtracks%" -T "COMMENT=%comment%" %source% -o %dest%
TOC of the extracted CD
Track | Start | Length | Start sector | End sector
---------------------------------------------------------
1 | 0:00.32 | 6:52.38 | 32 | 30969
2 | 6:52.70 | 5:22.47 | 30970 | 55166
3 | 12:15.42 | 7:02.30 | 55167 | 86846
4 | 19:17.72 | 4:11.68 | 86847 | 105739
5 | 23:29.65 | 4:26.50 | 105740 | 125739
6 | 27:56.40 | 2:15.67 | 125740 | 135931
7 | 30:12.32 | 4:33.48 | 135932 | 156454
8 | 34:46.05 | 4:47.27 | 156455 | 178006
9 | 39:33.32 | 7:38.28 | 178007 | 212384
10 | 47:11.60 | 11:26.07 | 212385 | 263841
Track 1
Filename f:\Users\Guillermo\Desktop\EAC convertidos\01 Pista01.wav
Pre-gap length 0:00:02.42
Peak level 97.1 %
Extraction speed 17.8 X
Track quality 100.0 %
Test CRC 1E576981
Copy CRC 1E576981
Copy OK
Track 2
Filename f:\Users\Guillermo\Desktop\EAC convertidos\02 Pista02.wav
Pre-gap length 0:00:03.50
Peak level 79.3 %
Extraction speed 15.3 X
Track quality 99.9 %
Test CRC 2762335F
Copy CRC 2762335F
Copy OK
Track 3
Filename f:\Users\Guillermo\Desktop\EAC convertidos\03 Pista03.wav
Pre-gap length 0:00:03.49
Peak level 96.5 %
Extraction speed 9.8 X
Track quality 100.0 %
Test CRC 97977F28
Copy CRC 97977F28
Copy OK
Track 4
Filename f:\Users\Guillermo\Desktop\EAC convertidos\04 Pista04.wav
Pre-gap length 0:00:03.49
Peak level 90.2 %
Extraction speed 10.2 X
Track quality 100.0 %
Test CRC 95235F43
Copy CRC 95235F43
Copy OK
Track 5
Filename f:\Users\Guillermo\Desktop\EAC convertidos\05 Pista05.wav
Pre-gap length 0:00:03.49
Peak level 90.1 %
Extraction speed 10.9 X
Track quality 100.0 %
Test CRC 428BCA0C
Copy CRC 428BCA0C
Copy OK
Track 6
Filename f:\Users\Guillermo\Desktop\EAC convertidos\06 Pista06.wav
Pre-gap length 0:00:03.50
Peak level 65.3 %
Extraction speed 10.5 X
Track quality 100.0 %
Test CRC 88075A13
Copy CRC 88075A13
Copy OK
Track 7
Filename f:\Users\Guillermo\Desktop\EAC convertidos\07 Pista07.wav
Peak level 96.0 %
Extraction speed 11.7 X
Track quality 100.0 %
Test CRC A2CF0AF2
Copy CRC A2CF0AF2
Copy OK
Track 8
Filename f:\Users\Guillermo\Desktop\EAC convertidos\08 Pista08.wav
Pre-gap length 0:00:03.50
Peak level 86.4 %
Extraction speed 12.4 X
Track quality 100.0 %
Test CRC EC8B9BD4
Copy CRC EC8B9BD4
Copy OK
Track 9
Filename f:\Users\Guillermo\Desktop\EAC convertidos\09 Pista09.wav
Pre-gap length 0:00:03.49
Peak level 81.4 %
Extraction speed 14.2 X
Track quality 100.0 %
Test CRC E80F7A8E
Copy CRC E80F7A8E
Copy OK
Track 10
Filename f:\Users\Guillermo\Desktop\EAC convertidos\10 Pista10.wav
Pre-gap length 0:00:03.50
Peak level 98.0 %
Extraction speed 15.3 X
Track quality 99.9 %
Test CRC B52A9C34
Copy CRC B52A9C34
Copy OK
No errors occurred
End of status report
==== Log checksum AB0D3E7016369A6B0BE1AF0520CB511FD07F610621248A9F44C2D8FAC63A30C4 ====



Показать сообщения:    

Текущее время: 04-Дек 17:19

Часовой пояс: UTC + 3


Вы не можете начинать темы
Вы не можете отвечать на сообщения
Вы не можете редактировать свои сообщения
Вы не можете удалять свои сообщения
Вы не можете голосовать в опросах
Вы не можете прикреплять файлы к сообщениям
Вы не можете скачивать файлы