Кумиры экрана. Николай Рыбников (Руслан Заварзин) [2000, Личности и кумиры, DVB]


Статистика раздачи [Обновить пиров]
Размер:  508 MB   |    Зарегистрирован:  8 месяцев 16 дней   |    Скачан:  0 раз

Полного источника не было: Никогда

 
   
 
 
 

[Цитировать]

Кумиры экрана. Николай Рыбников
Дата/Год выпуска: 2000
Страна: Россия
Жанр: Личности и кумиры
Продолжительность: 00:26:19
Перевод: Не требуется
Студия / издатель: ВТВ-сервис
Режиссер: Руслан Заварзин
Телеканал: Ретро
Описание: Николай Рыбников рано остался без матери. В 1944 году уехал в Сталинград его отец Николай Николаевич. Сын перебрался к нему. Некоторое время они жили вместе, но отец вскоре умер.Во время учёбы с немалым успехом выступал в художественной самодеятельности. Хотя начал учёбу в медицинском институте, решил стать артистом и в 1948 году отправился в Москву поступать во ВГИК.Окончил ВГИК в 1953 году. Дебют в кино — прошедший почти незамеченным фильм "Команда с нашей улицы", роль Дроздова. Николай Рыбников стал любимцем зрителей в конце 50-х-начале 60-х годов ХХ века, исполнив лирически окрашенные образы молодых задорных парней, цельность и чистота, которых раскрывалась в острых и драматических взаимоотношениях с окружающими: Саша Савченко в фильме "Весна на Заречной улице" (1956), тракторист Фёдор Соловейков в ленте "Чужая родня" (1956), Николай Пасечник в картине "Высота" (1957), Илья Ковригин в кинокомедии "Девчата" (1961) и другие. Во время съёмок фильма «Высота» произошли перемены в личной жизни актёра — 2 января 1957 года он женился на актрисе Алле Ларионовой... По результатам зрительского опроса журнала «Советский экран», назван лучшим исполнителем эпизодической роли в фильме «Выйти замуж за капитана» (1986).
Доп. информация: "Кумиры экрана" - авторская передача Народной артистки СССР Клары Лучко, выступающей в роли ведущей.
Сэмпл: https://www.sendspace.com/file/lif7l6
качество: DVB
формат: MPG
Видео: MPEG2 720:576 4:3 2451 Кбит/сек 25,000 кадров/сек
Аудио: MPEG Audio 192 Кбит/сек 48,0 КГц 2 канала

MediaInfo

Общее
Полное имя : Кумиры экрана.Рыбников.mpg
Формат : MPEG-PS
Размер файла : 508 Мбайт
Продолжительность : 26 м.
Режим общего битрейта : Переменный
Общий поток : 2697 Кбит/сек
Видео
Идентификатор : 224 (0xE0)
Формат : MPEG Video
Версия формата : Version 2
Профиль формата : Main@Main
Параметр BVOP формата : Да
Параметр матрицы формата : Выборочная
Параметр GOP формата : M=3, N=12
Продолжительность : 26 м.
Вид битрейта : Переменный
Битрейт : 2451 Кбит/сек
Максимальный битрейт : 10000 Кбит/сек
Ширина : 720 пикселей
Высота : 576 пикселей
Соотношение сторон : 4:3
Частота кадров : 25,000 кадров/сек
Стандарт вещания : PAL
Цветовое пространство : YUV
Субдискретизация насыщенности : 4:2:0
Битовая глубина : 8 бит
Тип развёртки : Чересстрочная
Порядок развёртки : Верхнее поле первое
Метод сжатия : С потерями
Бит/(Пиксели*Кадры) : 0.236
Временной код первого кадра : 00:00:00:00
Оригинал временного кода : Group of pictures header
Размер потока : 462 Мбайт (91%)
Аудио
Идентификатор : 192 (0xC0)
Формат : MPEG Audio
Версия формата : Version 1
Профиль формата : Layer 2
Продолжительность : 26 м.
Вид битрейта : Постоянный
Битрейт : 192 Кбит/сек
Каналы : 2 канала
Частота : 48,0 КГц
Метод сжатия : С потерями
Задержка видео : 3 мс.
Размер потока : 36,2 Мбайт (7%)

Скриншоты

Запись потока *.ts произведена тюнером цифрового телевидения. В связи с тем, что не все плееры воспроизводят поток *.ts (MPEG-TS) , в данном видеофайле мной был сделан ремукс потока *.ts (MPEG-TS) в *.mpg (MPEG-PS) программой VideoReDo.
[teatrix.ru].t20681.torrent 
Торрент: Зарегистрирован [ 2016-03-20 00:25 ] · 3924933ED508F29829BEE41C85356EA1F9AAD77E

Скачать .torrent

Скачать

20 KB

Статус: проверено
Скачан: 0 раз
Размер: 508 MB
terms.php



Быстрый ответ

Имя:

      
Для отправки сообщений необходимо включить JavaScript
Показать сообщения:    

Текущее время: 05-Дек 01:26

Часовой пояс: UTC + 3


Вы можете начинать темы
Вы можете отвечать на сообщения
Вы не можете редактировать свои сообщения
Вы не можете удалять свои сообщения
Вы не можете голосовать в опросах
Вы не можете прикреплять файлы к сообщениям
Вы можете скачивать файлы