(Opera, Vocal) Giuseppe Giacomini: Tradizione e Arte del Canto (Tradition and Art of the Singing) (Tenor Operatic Arias by Verdi, Puccini, Giordano, Cilea, Leoncavallo, Ponchielli), 1996 - studio recording / 1998, FLAC (tracks), lossless


 

[Цитировать]

Giuseppe Giacomini: Tradizione e Arte del Canto (Tradition and Art of the Singing) (Tenor Operatic Arias by Verdi, Puccini, Giordano, Cilea, Leoncavallo, Ponchielli)
Жанр: Opera, Vocal
Страна-производитель диска: Италия
Год издания диска: 1998
Издатель (лейбл): Bongiovanni
Дата записи: 1996
Аудиокодек: FLAC
Тип рипа: tracks
Битрейт аудио: lossless
Продолжительность: 50:54
Источник: релизер (Guillermo)
Треклист:
1. Giuseppe Verdi - La forza del destino: ''La vita è inferno all'infelice... O tu che in seno agli angeli'' [06:22];
Umberto Giordano:
2. Andrea Chénier: "Come un bel dì di maggio" [02:41];
3. Fedora: "Amor ti vieta" [02:02];
4. Giacomo Puccini - La fanciulla del West (The Girl of the Golden West): "Ch'ella mi creda" [02:25];
5. Giuseppe Verdi - Aida: "Celeste Aida" [04:22];
6. Amilcare Ponchielli - La Gioconda: "Cielo e mar" [04:20];
Giuseppe Verdi - Otello:
7. "Dio mi potevi scagliar" [04:09];
8. "Nium mi tema" [05:16];
9. Francesco Cilèa - Adriana Lecouvreur: "L'anima ho stanca" [01:57];
10. Ruggero Leoncavallo - Pagliacci: "Recitar... Vesti la giubba" [03:41];
11. Giacomo Meyerbeer - L' Africaine: "O paradiso" [03:33];
12. Giacomo Puccini - La fanciulla del West (The Girl of the Golden West): "Una parola sola... Or son sei mesi" [03:42];
13. Umberto Giordano - Andrea Chénier: "Un dì all'azzurro spazio" [04:27];
14. Giacomo Puccini - Madama Butterfly: "Addio, fiorito asil" [01:57].
Исполнители:
Giuseppe Giacomini, tenor,
Guido Maria Guida, Conductor,
Symphonia Perusina Orchestra.
Recorded in Studio, September, 2-6, 1996.

Лог создания рипа

Exact Audio Copy V1.0 beta 3 from 29. August 2011
EAC extraction logfile from 21. March 2015, 14:35
Giuseppe Giacomoni - Tenor / Tradizione e Arte del Canto
Used drive : HL-DT-STDVDRAM GH22NS50 Adapter: 3 ID: 0
Read mode : Secure
Utilize accurate stream : Yes
Defeat audio cache : No
Make use of C2 pointers : Yes
Read offset correction : 667
Overread into Lead-In and Lead-Out : No
Fill up missing offset samples with silence : Yes
Delete leading and trailing silent blocks : Yes
Null samples used in CRC calculations : Yes
Used interface : Native Win32 interface for Win NT & 2000
Gap handling : Appended to previous track
Used output format : User Defined Encoder
Selected bitrate : 768 kBit/s
Quality : High
Add ID3 tag : No
Command line compressor : C:\Program Files (x86)\Exact Audio Copy\FLAC\FLAC.EXE
Additional command line options : -8 -V -T "ARTIST=%artist%" -T "TITLE=%title%" -T "ALBUM=%albumtitle%" -T "DATE=%year%" -T "TRACKNUMBER=%tracknr%" -T "GENRE=%genre%" -T "PERFORMER=%albuminterpret%" -T "COMPOSER=%composer%" %haslyrics%--tag-from-file=LYRICS="%lyricsfile%"%haslyrics% -T "ALBUMARTIST=%albumartist%" -T "DISCNUMBER=%cdnumber%" -T "TOTALDISCS=%totalcds%" -T "TOTALTRACKS=%numtracks%" -T "COMMENT=%comment%" %source% -o %dest%
TOC of the extracted CD
Track | Start | Length | Start sector | End sector
---------------------------------------------------------
1 | 0:00.00 | 6:22.31 | 0 | 28680
2 | 6:22.31 | 2:41.72 | 28681 | 40827
3 | 9:04.28 | 2:02.48 | 40828 | 50025
4 | 11:07.01 | 2:25.37 | 50026 | 60937
5 | 13:32.38 | 4:22.44 | 60938 | 80631
6 | 17:55.07 | 4:20.70 | 80632 | 100201
7 | 22:16.02 | 4:09.43 | 100202 | 118919
8 | 26:25.45 | 5:16.47 | 118920 | 142666
9 | 31:42.17 | 1:57.48 | 142667 | 151489
10 | 33:39.65 | 3:41.70 | 151490 | 168134
11 | 37:21.60 | 3:33.29 | 168135 | 184138
12 | 40:55.14 | 3:42.70 | 184139 | 200858
13 | 44:38.09 | 4:27.69 | 200859 | 220952
14 | 49:06.03 | 1:57.74 | 220953 | 229801
Track 1
Filename f:\Users\Guillermo\Desktop\EAC convertidos\01 La vita � inferno all'infelice-La Forza del destino, Verdi.wav
Pre-gap length 0:00:02.00
Peak level 99.4 %
Extraction speed 17.4 X
Track quality 99.9 %
Test CRC B3769969
Copy CRC B3769969
Copy OK
Track 2
Filename f:\Users\Guillermo\Desktop\EAC convertidos\02 Come un bel d� di maggio-Andrea Ch�nier, Giordano.wav
Peak level 93.0 %
Extraction speed 21.4 X
Track quality 100.0 %
Test CRC 8225F461
Copy CRC 8225F461
Copy OK
Track 3
Filename f:\Users\Guillermo\Desktop\EAC convertidos\03 Amor ti vieta-Fedora, Giordano.wav
Peak level 71.3 %
Extraction speed 18.1 X
Track quality 100.0 %
Test CRC E35699D4
Copy CRC E35699D4
Copy OK
Track 4
Filename f:\Users\Guillermo\Desktop\EAC convertidos\04 Ch'ella mi creda-La Fanciulla del West, Puccini.wav
Peak level 93.7 %
Extraction speed 19.2 X
Track quality 100.0 %
Test CRC 6940D02D
Copy CRC 6940D02D
Copy OK
Track 5
Filename f:\Users\Guillermo\Desktop\EAC convertidos\05 Celeste Aida-Aida, Verdi.wav
Peak level 92.7 %
Extraction speed 21.1 X
Track quality 99.9 %
Test CRC 065B43CE
Copy CRC 065B43CE
Copy OK
Track 6
Filename f:\Users\Guillermo\Desktop\EAC convertidos\06 Cielo e mar-La Gioconda, Ponchielli.wav
Peak level 85.1 %
Extraction speed 23.8 X
Track quality 100.0 %
Test CRC 678C4400
Copy CRC 678C4400
Copy OK
Track 7
Filename f:\Users\Guillermo\Desktop\EAC convertidos\07 Dio, mi potevi scagliar-Otello, Verdi.wav
Peak level 92.9 %
Extraction speed 28.2 X
Track quality 100.0 %
Test CRC 642A7C73
Copy CRC 642A7C73
Copy OK
Track 8
Filename f:\Users\Guillermo\Desktop\EAC convertidos\08 Nium mi tema-Otello, Verdi.wav
Peak level 82.9 %
Extraction speed 26.8 X
Track quality 100.0 %
Test CRC A3EFD2D3
Copy CRC A3EFD2D3
Copy OK
Track 9
Filename f:\Users\Guillermo\Desktop\EAC convertidos\09 L'anima ho stanca-Adriana Lecouvreur, Cilea.wav
Peak level 67.8 %
Extraction speed 30.2 X
Track quality 100.0 %
Test CRC 44227D4F
Copy CRC 44227D4F
Copy OK
Track 10
Filename f:\Users\Guillermo\Desktop\EAC convertidos\10 Recitar...Vesti la giubba-Pagliacci, Leoncavallo.wav
Peak level 93.2 %
Extraction speed 31.6 X
Track quality 100.0 %
Test CRC 3EA1EA99
Copy CRC 3EA1EA99
Copy OK
Track 11
Filename f:\Users\Guillermo\Desktop\EAC convertidos\11 O paradiso-L'Africana, Meyerbeer.wav
Peak level 86.0 %
Extraction speed 28.0 X
Track quality 100.0 %
Test CRC 9F714D68
Copy CRC 9F714D68
Copy OK
Track 12
Filename f:\Users\Guillermo\Desktop\EAC convertidos\12 Una parola sola...Or son sei mesi-La Fanciulla del West, Puccini.wav
Peak level 94.6 %
Extraction speed 28.7 X
Track quality 100.0 %
Test CRC 2A85AC9D
Copy CRC 2A85AC9D
Copy OK
Track 13
Filename f:\Users\Guillermo\Desktop\EAC convertidos\13 Un d� all'azzurro spazio (L'Improviso)-Andrea Ch�nier, Giordano.wav
Peak level 93.4 %
Extraction speed 30.7 X
Track quality 100.0 %
Test CRC CFD12B44
Copy CRC CFD12B44
Copy OK
Track 14
Filename f:\Users\Guillermo\Desktop\EAC convertidos\14 Addio fiorito asil-Madama Butterfly, Puccini.wav
Peak level 90.5 %
Extraction speed 34.9 X
Track quality 100.0 %
Test CRC 0CBBC18B
Copy CRC 0CBBC18B
Copy OK
No errors occurred
End of status report
==== Log checksum D02F7BA77AB3C207DFE874A37C3B670D36ADF161823383BDAF6C559470599F5B ====



Показать сообщения:    

Текущее время: 09-Дек 16:36

Часовой пояс: UTC + 3


Вы не можете начинать темы
Вы не можете отвечать на сообщения
Вы не можете редактировать свои сообщения
Вы не можете удалять свои сообщения
Вы не можете голосовать в опросах
Вы не можете прикреплять файлы к сообщениям
Вы не можете скачивать файлы