Кумиры экрана. Иннокентий Смоктуновский (Руслан Заварзин) [2000, Личности и кумиры, DVB]


Статистика раздачи [Обновить пиров]
Размер:  433 MB   |    Зарегистрирован:  8 месяцев 15 дней   |    Скачан:  0 раз

Полного источника не было: Никогда

 
   
 
 
 

[Цитировать]

Кумиры экрана. Иннокентий Смоктуновский
Дата/Год выпуска: 2000
Страна: Россия
Жанр: Личности и кумиры
Продолжительность: 00:26:07
Перевод: Не требуется
Режиссер: Руслан Заварзин
Телеканал: Ретро
Описание: Иннокентий Смоктуно́вский — советский и российский актёр театра и кино. Народный артист СССР (1974). Герой Социалистического Труда (1990). Лауреат Ленинской премии (1965). Участник Великой Отечественной войны 1941—1945 годов.
Образы, созданные Смоктуновским на сцене — князь Мышкин в Большом драматическом театре, царь Фёдор Иоаннович в Малом, чеховский Иванов и Порфирий Головлёв во МХАТе — вошли в «золотой фонд» русского театрального искусства...
Смоктуновского называли первым интеллектуальным актёром советского кинематографа; лучшие свои роли он сыграл в фильмах «Солдаты», «Девять дней одного года», «Гамлет», «Чайковский», «Дамский портной» и в лирической комедии Эльдара Рязанова «Берегись автомобиля»
Доп. информация: "Кумиры экрана" - авторская передача Народной артистки СССР Клары Лучко, выступающей в роли ведущей.
качество: DVB
формат: MPG
Видео: MPEG2 720:576 4:3 2077 Кбит/сек 25,000 кадров/сек
Аудио: MPEG Audio 192 Кбит/сек 48,0 КГц 2 канала

MediaInfo

Общее
Полное имя : Кумиры экрана.Смоктуновский.mpg
Формат : MPEG-PS
Размер файла : 433 Мбайт
Продолжительность : 26 м.
Режим общего битрейта : Переменный
Общий поток : 2315 Кбит/сек
Видео
Идентификатор : 224 (0xE0)
Формат : MPEG Video
Версия формата : Version 2
Профиль формата : Main@Main
Параметр BVOP формата : Да
Параметр матрицы формата : Выборочная
Параметр GOP формата : M=3, N=12
Продолжительность : 26 м.
Вид битрейта : Переменный
Битрейт : 2077 Кбит/сек
Максимальный битрейт : 10000 Кбит/сек
Ширина : 720 пикселей
Высота : 576 пикселей
Соотношение сторон : 4:3
Частота кадров : 25,000 кадров/сек
Стандарт вещания : PAL
Цветовое пространство : YUV
Субдискретизация насыщенности : 4:2:0
Битовая глубина : 8 бит
Тип развёртки : Чересстрочная
Порядок развёртки : Верхнее поле первое
Метод сжатия : С потерями
Бит/(Пиксели*Кадры) : 0.200
Временной код первого кадра : 00:00:00:00
Оригинал временного кода : Group of pictures header
Размер потока : 388 Мбайт (90%)
Аудио
Идентификатор : 192 (0xC0)
Формат : MPEG Audio
Версия формата : Version 1
Профиль формата : Layer 2
Продолжительность : 26 м.
Вид битрейта : Постоянный
Битрейт : 192 Кбит/сек
Каналы : 2 канала
Частота : 48,0 КГц
Метод сжатия : С потерями
Задержка видео : 3 мс.
Размер потока : 35,9 Мбайт (8%)

Скриншоты

Запись потока *.ts произведена тюнером цифрового телевидения. В связи с тем, что не все плееры воспроизводят поток *.ts (MPEG-TS) , в данном видеофайле мной был сделан ремукс потока *.ts (MPEG-TS) в *.mpg (MPEG-PS) программой VideoReDo.
[teatrix.ru].t20683.torrent 
Торрент: Зарегистрирован [ 2016-03-20 00:28 ] · 33EA0EBF3E3BC8A45BE3A8993E3B99245AC425CF

Скачать .torrent

Скачать

17 KB

Статус: проверено
Скачан: 0 раз
Размер: 433 MB
terms.php



Быстрый ответ

Имя:

      
Для отправки сообщений необходимо включить JavaScript
Показать сообщения:    

Текущее время: 04-Дек 21:25

Часовой пояс: UTC + 3


Вы можете начинать темы
Вы можете отвечать на сообщения
Вы не можете редактировать свои сообщения
Вы не можете удалять свои сообщения
Вы не можете голосовать в опросах
Вы не можете прикреплять файлы к сообщениям
Вы можете скачивать файлы