Василий Меркурьев. Пока бьётся сердце. (Евгений Пахоменков) [2009, Личности и кумиры, DVB]


Статистика раздачи [Обновить пиров]
Размер:  998 MB   |    Зарегистрирован:  8 месяцев 21 день   |    Скачан:  0 раз

Полного источника не было: Никогда

 
   
 
 
 

[Цитировать]

Василий Меркурьев. Пока бьётся сердце.
Дата/Год выпуска: 2009
Страна: Россия
Жанр: Личности и кумиры
Продолжительность: 00:39:02
Перевод: Не требуется
Режиссер: Евгений Пахоменков
Телеканал: ТВ Центр – International
Описание: Документальный фильм "Василий Меркурьев. Пока бьётся сердце". Его любила вся страна. Это был по-настоящему народный артист. Образы незадачливого Мальволио из "Двенадцатой ночи", лейтенанта тучи из "Небесного тихохода", истинного врача из "Летят журавли" и многие другие вошли в золотой фонд советского кино. В жизни актёра, как в зеркале, отразилась вся история страны...
Сэмпл: https://www.sendspace.com/file/t9fzoe
качество: DVB
формат: MPG
Видео: MPEG2 720:576 4:3 3400 Кбит/сек 25,000 кадров/сек
Аудио: MPEG Audio 128 Кбит/сек 48,0 КГц 2 канала

MediaInfo

Общее
Полное имя :Василий Меркурьев. Пока бьётся сердце\Василий Меркурьев. Пока бьётся сердце.mpg
Формат : MPEG-PS
Размер файла : 998 Мбайт
Продолжительность : 39 м.
Общий поток : 3573 Кбит/сек
Видео
Идентификатор : 224 (0xE0)
Формат : MPEG Video
Версия формата : Version 2
Профиль формата : Main@Main
Параметр BVOP формата : Да
Параметр матрицы формата : Выборочная
Параметр GOP формата : M=3, N=24
Продолжительность : 39 м.
Битрейт : 3400 Кбит/сек
Ширина : 720 пикселей
Высота : 576 пикселей
Соотношение сторон : 4:3
Частота кадров : 25,000 кадров/сек
Стандарт вещания : PAL
Цветовое пространство : YUV
Субдискретизация насыщенности : 4:2:0
Битовая глубина : 8 бит
Тип развёртки : Чересстрочная
Порядок развёртки : Верхнее поле первое
Метод сжатия : С потерями
Бит/(Пиксели*Кадры) : 0.328
Временной код первого кадра : 00:00:00:00
Оригинал временного кода : Group of pictures header
Размер потока : 942 Мбайт (94%)
Аудио
Идентификатор : 192 (0xC0)
Формат : MPEG Audio
Версия формата : Version 1
Профиль формата : Layer 2
Продолжительность : 39 м.
Вид битрейта : Постоянный
Битрейт : 128 Кбит/сек
Каналы : 2 канала
Частота : 48,0 КГц
Метод сжатия : С потерями
Задержка видео : 22 мс.
Размер потока : 35,8 Мбайт (4%)

Скриншоты

Запись потока *.ts произведена тюнером цифрового телевидения. В связи с тем, что не все плееры воспроизводят поток *.ts (MPEG-TS) , в данном видеофайле мной был сделан ремукс потока *.ts (MPEG-TS) в *.mpg (MPEG-PS) программой VideoReDo.
[teatrix.ru].t20687.torrent 
Торрент: Зарегистрирован [ 2016-03-20 00:27 ] · 9834898CB2B5F2DF5E679245ACF20A7F965BA048

Скачать .torrent

Скачать

20 KB

Статус: проверено
Скачан: 0 раз
Размер: 998 MB
terms.php



Быстрый ответ

Имя:

      
Для отправки сообщений необходимо включить JavaScript
Показать сообщения:    

Текущее время: 10-Дек 17:43

Часовой пояс: UTC + 3


Вы можете начинать темы
Вы можете отвечать на сообщения
Вы не можете редактировать свои сообщения
Вы не можете удалять свои сообщения
Вы не можете голосовать в опросах
Вы не можете прикреплять файлы к сообщениям
Вы можете скачивать файлы