В.Высоцкий. Город Зеленоград. Интервью (Петр Солдатенков) [23.04.1978, Документальный, DVDRip]


Статистика раздачи [Обновить пиров]
Размер:  186 MB   |    Зарегистрирован:  8 месяцев 17 дней   |    Скачан:  1 раз

Полного источника не было: 1 месяц 6 дней

 
   
 
 
 

[Цитировать]

Город Зеленоград.Интервью В .Высоцкого
Дата/Год выпуска: 23:04:1978
Страна: Россия
Жанр: Документальный
Продолжительность: 00:15:34
Перевод: Не требуется
Режиссер: Петр Солдатенков
Описание: Интервью Владимира Высоцкого в городе Зеленограде
Доп. информация: исходник : http://teatrix.ru/viewtopic.php?t=3248641
качество: DVDRip
формат: AVI
Видео: XVID 640x480 4:3 1435Kbps 25fps
Аудио: АС3 48kHz 224Kbps СТЕРЕО

MediaInfo

Общее
Полное имя : F:\В.Высоцкий 1978.avi
Формат : AVI
Формат/Информация : Audio Video Interleave
Размер файла : 186 Мбайт
Продолжительность : 15 м.
Общий поток : 1670 Кбит/сек
Программа кодирования : Lavf54.63.104
Видео
Идентификатор : 0
Формат : xvid
Идентификатор кодека : xvid
Продолжительность : 15 м.
Битрейт : 1435 Кбит/сек
Ширина : 640 пикселей
Высота : 480 пикселей
Соотношение сторон : 4:3
Частота кадров : 25,000 кадров/сек
Бит/(Пиксели*Кадры) : 0.187
Размер потока : 160 Мбайт (86%)
Аудио
Идентификатор : 1
Формат : AC-3
Формат/Информация : Audio Coding 3
Расширение режима : CM (complete main)
Параметр Endianness формата : Big
Идентификатор кодека : 2000
Продолжительность : 15 м.
Вид битрейта : Постоянный
Битрейт : 224 Кбит/сек
Каналы : 2 канала
Расположение каналов : Front: L R
Частота : 48,0 КГц
Битовая глубина : 16 бит
Метод сжатия : С потерями
Размер потока : 25,0 Мбайт (13%)
Выравнивание : Соединение по промежуткам
Продолжительность промежутка : 32 мс. (0,80 видеокадр)

Скриншоты

[teatrix.ru].t20689.torrent 
Торрент: Зарегистрирован [ 2016-03-20 00:27 ] · 285D29717B845A5A2112D53B8E747A34E14C0840

Скачать .torrent

Скачать

15 KB

Статус: проверено
Скачан: 1 раз
Размер: 186 MB
terms.php



Быстрый ответ

Имя:

      
Для отправки сообщений необходимо включить JavaScript
Показать сообщения:    

Текущее время: 06-Дек 13:15

Часовой пояс: UTC + 3


Вы можете начинать темы
Вы можете отвечать на сообщения
Вы не можете редактировать свои сообщения
Вы не можете удалять свои сообщения
Вы не можете голосовать в опросах
Вы не можете прикреплять файлы к сообщениям
Вы можете скачивать файлы