(opera) Giacomo Puccini - La Boheme (Angela Gheorghiu, Roberto Alagna, Elisabetta Scano - Chailly 1998) - 2012, FLAC (tracks+.cue) lossless


 

[Цитировать]

Giacomo Puccini - La Boheme (Angela Gheorghiu, Roberto Alagna, Elisabetta Scano - Chailly 1998)
Жанр: opera
Страна-производитель диска: EU
Год издания диска: 2012
Издатель (лейбл): Decca
Дата записи: 1998
Аудиокодек: FLAC
Тип рипа: tracks+.cue
Битрейт аудио: lossless
Продолжительность: CD1 - 50'37" CD2 - 49'12"
Источник: собственный рип
Наличие сканов в содержимом раздачи: нет
Треклист:
CD1
01. Questo Mar Rosso mi ammollisce e assidera.flac
02. Pensier profondo!.flac
03. Legna! - Sigari! - Bordo!.flac
04. Si puo.flac
05. Io resto per terminar l'articolo di fondo.flac
06. Chi e la! - Scusi.flac
07. Si sente meglio.flac
08. Che gelida manina.flac
09. Si. Mi chiamano Mimi.flac
10. O soave fanciulla.flac
11. Aranci, datteri, caldi i marroni!.flac
12. Chi guardi.flac
13. Viva Parpignol!.flac
14. Oh! - Essa! - Musetta!.flac
15. Quando me n'vo.flac
16. Chi l'ha richiesto.flac
CD2
01. Ohe, la, la guardie! Aprite!.flac
02. Sa dirmi, scusi, quai'e l'osteria.flac
03. Mimi! Speravo di trovari qui.flac
04. Marcello. Finalemente!.flac
05. Mimi e una civetta.flac
06. Mimi e tanto malata.flac
07. Donde lieta usci al tuo grido d'amore.flac
08. Dunque e proprio finita!.flac
09. In un coupe.flac
10. O Mimi, tu piu non torni.flac
11. Gavotta! Minuetto! Pavanella! Fandango!.flac
12. C'e Mimi!.flac
13. Vecchia zimarra, senti.flac
14. Sono andati Fingevo di dormire.flac
15. Che avvien Nulla. Sto bene.flac
Исполнители:
La bohème by Giacomo Puccini performed in Italian
Conductor Riccardo Chailly - 1998(STU)
Orchestra - Teatro alla Scala
Chorus - Teatro alla Scala
Rodolfo - Roberto Alagna
Schaunard - Roberto De Candia
Marcello - Simon Keenlyside
Colline - Ildebrando d' Arcangelo
Mimi - Angela Gheorghiu
Musetta - Elisabetta Scano
Benoit - Alfredo Mariotti
Alcindoro - Alfredo Mariotti
Parpignol - Alberto Ragona
Sergente dei doganieri - Gianfranco Valentini
Un doganiere - Franco Podda

Лог создания рипа

La Boheme (CD 1).log

Exact Audio Copy V1.0 beta 3 from 29. August 2011
EAC extraction logfile from 30. December 2014, 20:44
Gheorghiu, Alagna; Chailly, Orchestra e Core del Tratro Alla Scala di Millano / La Boheme (CD 1)
Used drive : hp DVDRAM GT50N Adapter: 0 ID: 0
Read mode : Secure
Utilize accurate stream : Yes
Defeat audio cache : Yes
Make use of C2 pointers : No
Read offset correction : 103
Overread into Lead-In and Lead-Out : No
Fill up missing offset samples with silence : Yes
Delete leading and trailing silent blocks : No
Null samples used in CRC calculations : Yes
Used interface : Native Win32 interface for Win NT & 2000
Gap handling : Appended to previous track
Used output format : User Defined Encoder
Selected bitrate : 128 kBit/s
Quality : High
Add ID3 tag : No
Command line compressor : C:\Program Files\Exact Audio Copy\Flac\flac.exe
Additional command line options : -V -8 -T "Genre=%genre%" -T "Artist=%artist%" -T "Title=%title%" -T "Album=%albumtitle%" -T "Date=%year%" -T "Tracknumber=%tracknr%" -T "Comment=%comment%" %source%
TOC of the extracted CD
Track | Start | Length | Start sector | End sector
---------------------------------------------------------
1 | 0:00.00 | 4:01.67 | 0 | 18141
2 | 4:01.67 | 1:14.19 | 18142 | 23710
3 | 5:16.11 | 3:25.48 | 23711 | 39133
4 | 8:41.59 | 4:55.38 | 39134 | 61296
5 | 13:37.22 | 1:08.04 | 61297 | 66400
6 | 14:45.26 | 1:19.12 | 66401 | 72337
7 | 16:04.38 | 2:28.06 | 72338 | 83443
8 | 18:32.44 | 4:37.29 | 83444 | 104247
9 | 23:09.73 | 5:33.65 | 104248 | 129287
10 | 28:43.63 | 4:19.38 | 129288 | 148750
11 | 33:03.26 | 2:34.15 | 148751 | 160315
12 | 35:37.41 | 3:00.12 | 160316 | 173827
13 | 38:37.53 | 2:09.33 | 173828 | 183535
14 | 40:47.11 | 3:10.73 | 183536 | 197858
15 | 43:58.09 | 4:24.54 | 197859 | 217712
16 | 48:22.63 | 2:12.29 | 217713 | 227641
Track 1
Filename D:\Temp\Пуччини - La Boheme - Angela Gheorghiu, Roberto Alagna, Elisabetta Scano - Chailly\La Boheme - CD 1\01. Questo Mar Rosso mi ammollisce e assidera.wav
Pre-gap length 0:00:02.00
Peak level 64.9 %
Extraction speed 2.5 X
Track quality 100.0 %
Test CRC 6BFB17B0
Copy CRC 6BFB17B0
Accurately ripped (confidence 24) [72350B64] (AR v2)
Copy OK
Track 2
Filename D:\Temp\Пуччини - La Boheme - Angela Gheorghiu, Roberto Alagna, Elisabetta Scano - Chailly\La Boheme - CD 1\02. Pensier profondo!.wav
Peak level 42.6 %
Extraction speed 2.0 X
Track quality 100.0 %
Test CRC C6978955
Copy CRC C6978955
Accurately ripped (confidence 24) [E7F2359E] (AR v2)
Copy OK
Track 3
Filename D:\Temp\Пуччини - La Boheme - Angela Gheorghiu, Roberto Alagna, Elisabetta Scano - Chailly\La Boheme - CD 1\03. Legna! - Sigari! - Bordo!.wav
Peak level 77.0 %
Extraction speed 2.8 X
Track quality 100.0 %
Test CRC 20EDFC1B
Copy CRC 20EDFC1B
Accurately ripped (confidence 24) [84CDA252] (AR v2)
Copy OK
Track 4
Filename D:\Temp\Пуччини - La Boheme - Angela Gheorghiu, Roberto Alagna, Elisabetta Scano - Chailly\La Boheme - CD 1\04. Si puo.wav
Peak level 80.1 %
Extraction speed 3.1 X
Track quality 100.0 %
Test CRC 0F7FFFB0
Copy CRC 0F7FFFB0
Accurately ripped (confidence 24) [905C493B] (AR v2)
Copy OK
Track 5
Filename D:\Temp\Пуччини - La Boheme - Angela Gheorghiu, Roberto Alagna, Elisabetta Scano - Chailly\La Boheme - CD 1\05. Io resto per terminar l'articolo di fondo.wav
Peak level 40.1 %
Extraction speed 1.7 X
Track quality 99.8 %
Test CRC 3AE3EC4C
Copy CRC 3AE3EC4C
Accurately ripped (confidence 24) [8940F626] (AR v2)
Copy OK
Track 6
Filename D:\Temp\Пуччини - La Boheme - Angela Gheorghiu, Roberto Alagna, Elisabetta Scano - Chailly\La Boheme - CD 1\06. Chi e la! - Scusi.wav
Peak level 47.0 %
Extraction speed 2.6 X
Track quality 100.0 %
Test CRC 7F7231CD
Copy CRC 7F7231CD
Accurately ripped (confidence 24) [F4DD366C] (AR v2)
Copy OK
Track 7
Filename D:\Temp\Пуччини - La Boheme - Angela Gheorghiu, Roberto Alagna, Elisabetta Scano - Chailly\La Boheme - CD 1\07. Si sente meglio.wav
Peak level 59.1 %
Extraction speed 2.5 X
Track quality 99.9 %
Test CRC FB2A1C92
Copy CRC FB2A1C92
Accurately ripped (confidence 24) [B015B49C] (AR v2)
Copy OK
Track 8
Filename D:\Temp\Пуччини - La Boheme - Angela Gheorghiu, Roberto Alagna, Elisabetta Scano - Chailly\La Boheme - CD 1\08. Che gelida manina.wav
Peak level 100.0 %
Extraction speed 3.6 X
Track quality 100.0 %
Test CRC 6770B53B
Copy CRC 6770B53B
Accurately ripped (confidence 24) [318BC1C5] (AR v2)
Copy OK
Track 9
Filename D:\Temp\Пуччини - La Boheme - Angela Gheorghiu, Roberto Alagna, Elisabetta Scano - Chailly\La Boheme - CD 1\09. Si. Mi chiamano Mimi.wav
Peak level 91.4 %
Extraction speed 3.9 X
Track quality 100.0 %
Test CRC C2D03703
Copy CRC C2D03703
Accurately ripped (confidence 24) [F9222A9A] (AR v2)
Copy OK
Track 10
Filename D:\Temp\Пуччини - La Boheme - Angela Gheorghiu, Roberto Alagna, Elisabetta Scano - Chailly\La Boheme - CD 1\10. O soave fanciulla.wav
Peak level 100.0 %
Extraction speed 3.9 X
Track quality 100.0 %
Test CRC D32013BC
Copy CRC D32013BC
Accurately ripped (confidence 24) [A6513A7D] (AR v2)
Copy OK
Track 11
Filename D:\Temp\Пуччини - La Boheme - Angela Gheorghiu, Roberto Alagna, Elisabetta Scano - Chailly\La Boheme - CD 1\11. Aranci, datteri, caldi i marroni!.wav
Pre-gap length 0:00:16.31
Peak level 91.5 %
Extraction speed 3.8 X
Track quality 100.0 %
Test CRC DB15C31F
Copy CRC DB15C31F
Accurately ripped (confidence 24) [7CDCD0CB] (AR v2)
Copy OK
Track 12
Filename D:\Temp\Пуччини - La Boheme - Angela Gheorghiu, Roberto Alagna, Elisabetta Scano - Chailly\La Boheme - CD 1\12. Chi guardi.wav
Peak level 87.9 %
Extraction speed 3.9 X
Track quality 100.0 %
Test CRC 7AAA3877
Copy CRC 7AAA3877
Accurately ripped (confidence 24) [A10499E6] (AR v2)
Copy OK
Track 13
Filename D:\Temp\Пуччини - La Boheme - Angela Gheorghiu, Roberto Alagna, Elisabetta Scano - Chailly\La Boheme - CD 1\13. Viva Parpignol!.wav
Peak level 62.1 %
Extraction speed 3.1 X
Track quality 99.9 %
Test CRC 1640BC86
Copy CRC 1640BC86
Accurately ripped (confidence 24) [E22F32D9] (AR v2)
Copy OK
Track 14
Filename D:\Temp\Пуччини - La Boheme - Angela Gheorghiu, Roberto Alagna, Elisabetta Scano - Chailly\La Boheme - CD 1\14. Oh! - Essa! - Musetta!.wav
Peak level 53.2 %
Extraction speed 4.3 X
Track quality 100.0 %
Test CRC C89481D0
Copy CRC C89481D0
Accurately ripped (confidence 24) [14C7C7DC] (AR v2)
Copy OK
Track 15
Filename D:\Temp\Пуччини - La Boheme - Angela Gheorghiu, Roberto Alagna, Elisabetta Scano - Chailly\La Boheme - CD 1\15. Quando me n'vo.wav
Peak level 100.0 %
Extraction speed 4.6 X
Track quality 100.0 %
Test CRC 8F9E54DC
Copy CRC 8F9E54DC
Accurately ripped (confidence 24) [BE159835] (AR v2)
Copy OK
Track 16
Filename D:\Temp\Пуччини - La Boheme - Angela Gheorghiu, Roberto Alagna, Elisabetta Scano - Chailly\La Boheme - CD 1\16. Chi l'ha richiesto.wav
Peak level 100.0 %
Extraction speed 4.2 X
Track quality 100.0 %
Test CRC C983663D
Copy CRC C983663D
Accurately ripped (confidence 24) [F1D0950E] (AR v2)
Copy OK
All tracks accurately ripped
No errors occurred
End of status report
==== Log checksum E1CB4A415A8EE941806C4B694808346F4DA80B0734CF4A55C5540A45F817425C ====

La Boheme (CD 2).log

Exact Audio Copy V1.0 beta 3 from 29. August 2011
EAC extraction logfile from 30. December 2014, 21:43
Gheorghiu, Alagna; Chailly, Orchestra e Core del Tratro Alla Scala di Millano / La Boheme (CD 2)
Used drive : hp DVDRAM GT50N Adapter: 0 ID: 0
Read mode : Secure
Utilize accurate stream : Yes
Defeat audio cache : Yes
Make use of C2 pointers : No
Read offset correction : 103
Overread into Lead-In and Lead-Out : No
Fill up missing offset samples with silence : Yes
Delete leading and trailing silent blocks : No
Null samples used in CRC calculations : Yes
Used interface : Native Win32 interface for Win NT & 2000
Gap handling : Appended to previous track
Used output format : User Defined Encoder
Selected bitrate : 128 kBit/s
Quality : High
Add ID3 tag : No
Command line compressor : C:\Program Files\Exact Audio Copy\Flac\flac.exe
Additional command line options : -V -8 -T "Genre=%genre%" -T "Artist=%artist%" -T "Title=%title%" -T "Album=%albumtitle%" -T "Date=%year%" -T "Tracknumber=%tracknr%" -T "Comment=%comment%" %source%
TOC of the extracted CD
Track | Start | Length | Start sector | End sector
---------------------------------------------------------
1 | 0:00.00 | 3:19.63 | 0 | 14987
2 | 3:19.63 | 1:27.44 | 14988 | 21556
3 | 4:47.32 | 4:38.12 | 21557 | 42418
4 | 9:25.44 | 1:07.57 | 42419 | 47500
5 | 10:33.26 | 1:16.56 | 47501 | 53256
6 | 11:50.07 | 2:55.20 | 53257 | 66401
7 | 14:45.27 | 2:59.44 | 66402 | 79870
8 | 17:44.71 | 5:19.59 | 79871 | 103854
9 | 23:04.55 | 1:09.32 | 103855 | 109061
10 | 24:14.12 | 4:58.19 | 109062 | 131430
11 | 29:12.31 | 1:29.58 | 131431 | 138163
12 | 30:42.14 | 5:24.47 | 138164 | 162510
13 | 36:06.61 | 2:10.19 | 162511 | 172279
14 | 38:17.05 | 5:37.12 | 172280 | 197566
15 | 43:54.17 | 5:15.20 | 197567 | 221211
Track 1
Filename D:\Temp\Пуччини - La Boheme - Angela Gheorghiu, Roberto Alagna, Elisabetta Scano - Chailly\La Boheme - CD 2\01. Ohe, la, la guardie! Aprite!.wav
Pre-gap length 0:00:02.00
Peak level 80.2 %
Extraction speed 2.1 X
Track quality 99.9 %
Test CRC 1C2A0C74
Copy CRC 1C2A0C74
Accurately ripped (confidence 24) [8741A517] (AR v2)
Copy OK
Track 2
Filename D:\Temp\Пуччини - La Boheme - Angela Gheorghiu, Roberto Alagna, Elisabetta Scano - Chailly\La Boheme - CD 2\02. Sa dirmi, scusi, quai'e l'osteria.wav
Peak level 24.4 %
Extraction speed 2.1 X
Track quality 100.0 %
Test CRC FBDFF886
Copy CRC FBDFF886
Accurately ripped (confidence 24) [EAC61FCC] (AR v2)
Copy OK
Track 3
Filename D:\Temp\Пуччини - La Boheme - Angela Gheorghiu, Roberto Alagna, Elisabetta Scano - Chailly\La Boheme - CD 2\03. Mimi! Speravo di trovari qui.wav
Peak level 93.7 %
Extraction speed 2.9 X
Track quality 100.0 %
Test CRC 2FE2DC38
Copy CRC 2FE2DC38
Accurately ripped (confidence 24) [F7F784B8] (AR v2)
Copy OK
Track 4
Filename D:\Temp\Пуччини - La Boheme - Angela Gheorghiu, Roberto Alagna, Elisabetta Scano - Chailly\La Boheme - CD 2\04. Marcello. Finalemente!.wav
Peak level 68.0 %
Extraction speed 2.2 X
Track quality 100.0 %
Test CRC BA952C76
Copy CRC BA952C76
Accurately ripped (confidence 24) [D03A2BC8] (AR v2)
Copy OK
Track 5
Filename D:\Temp\Пуччини - La Boheme - Angela Gheorghiu, Roberto Alagna, Elisabetta Scano - Chailly\La Boheme - CD 2\05. Mimi e una civetta.wav
Peak level 75.0 %
Extraction speed 2.4 X
Track quality 100.0 %
Test CRC F6C9ECDA
Copy CRC F6C9ECDA
Accurately ripped (confidence 24) [20384733] (AR v2)
Copy OK
Track 6
Filename D:\Temp\Пуччини - La Boheme - Angela Gheorghiu, Roberto Alagna, Elisabetta Scano - Chailly\La Boheme - CD 2\06. Mimi e tanto malata.wav
Peak level 78.8 %
Extraction speed 2.6 X
Track quality 99.9 %
Test CRC AE53754F
Copy CRC AE53754F
Accurately ripped (confidence 24) [ECBF77B5] (AR v2)
Copy OK
Track 7
Filename D:\Temp\Пуччини - La Boheme - Angela Gheorghiu, Roberto Alagna, Elisabetta Scano - Chailly\La Boheme - CD 2\07. Donde lieta usci al tuo grido d'amore.wav
Peak level 99.5 %
Extraction speed 2.7 X
Track quality 99.9 %
Test CRC 3A169388
Copy CRC 3A169388
Accurately ripped (confidence 24) [B14515E8] (AR v2)
Copy OK
Track 8
Filename D:\Temp\Пуччини - La Boheme - Angela Gheorghiu, Roberto Alagna, Elisabetta Scano - Chailly\La Boheme - CD 2\08. Dunque e proprio finita!.wav
Peak level 100.0 %
Extraction speed 3.7 X
Track quality 100.0 %
Test CRC 4F5EAB24
Copy CRC 4F5EAB24
Accurately ripped (confidence 24) [21F58DC4] (AR v2)
Copy OK
Track 9
Filename D:\Temp\Пуччини - La Boheme - Angela Gheorghiu, Roberto Alagna, Elisabetta Scano - Chailly\La Boheme - CD 2\09. In un coupe.wav
Pre-gap length 0:00:10.69
Peak level 99.4 %
Extraction speed 2.7 X
Track quality 100.0 %
Test CRC F228F4DC
Copy CRC F228F4DC
Accurately ripped (confidence 24) [2A95A8DB] (AR v2)
Copy OK
Track 10
Filename D:\Temp\Пуччини - La Boheme - Angela Gheorghiu, Roberto Alagna, Elisabetta Scano - Chailly\La Boheme - CD 2\10. O Mimi, tu piu non torni.wav
Peak level 74.0 %
Extraction speed 3.9 X
Track quality 100.0 %
Test CRC E911E1AB
Copy CRC E911E1AB
Accurately ripped (confidence 24) [3BE75BFF] (AR v2)
Copy OK
Track 11
Filename D:\Temp\Пуччини - La Boheme - Angela Gheorghiu, Roberto Alagna, Elisabetta Scano - Chailly\La Boheme - CD 2\11. Gavotta! Minuetto! Pavanella! Fandango!.wav
Peak level 71.6 %
Extraction speed 3.2 X
Track quality 100.0 %
Test CRC 45FB3945
Copy CRC 45FB3945
Accurately ripped (confidence 24) [2CC2D951] (AR v2)
Copy OK
Track 12
Filename D:\Temp\Пуччини - La Boheme - Angela Gheorghiu, Roberto Alagna, Elisabetta Scano - Chailly\La Boheme - CD 2\12. C'e Mimi!.wav
Peak level 100.0 %
Extraction speed 4.2 X
Track quality 100.0 %
Test CRC E1E18D6E
Copy CRC E1E18D6E
Accurately ripped (confidence 24) [908E5885] (AR v2)
Copy OK
Track 13
Filename D:\Temp\Пуччини - La Boheme - Angela Gheorghiu, Roberto Alagna, Elisabetta Scano - Chailly\La Boheme - CD 2\13. Vecchia zimarra, senti.wav
Peak level 31.1 %
Extraction speed 3.7 X
Track quality 100.0 %
Test CRC E50C2FA9
Copy CRC E50C2FA9
Accurately ripped (confidence 24) [E71C8177] (AR v2)
Copy OK
Track 14
Filename D:\Temp\Пуччини - La Boheme - Angela Gheorghiu, Roberto Alagna, Elisabetta Scano - Chailly\La Boheme - CD 2\14. Sono andati Fingevo di dormire.wav
Peak level 67.2 %
Extraction speed 4.5 X
Track quality 100.0 %
Test CRC 9B1BDB20
Copy CRC 9B1BDB20
Accurately ripped (confidence 24) [22522720] (AR v2)
Copy OK
Track 15
Filename D:\Temp\Пуччини - La Boheme - Angela Gheorghiu, Roberto Alagna, Elisabetta Scano - Chailly\La Boheme - CD 2\15. Che avvien Nulla. Sto bene.wav
Peak level 100.0 %
Extraction speed 4.7 X
Track quality 100.0 %
Test CRC 8E30FF7A
Copy CRC 8E30FF7A
Accurately ripped (confidence 24) [557C75EA] (AR v2)
Copy OK
All tracks accurately ripped
No errors occurred
End of status report
==== Log checksum 60B0F39FC19FE7401BE7FEC357A9C927B0787E5D73AF7A22EA00CC2D07E3904C ====

Содержание индексной карты (.CUE)

La Boheme (CD 1).cue

REM GENRE Classical
REM DATE 1999
REM DISCID E60BDB10
REM COMMENT "ExactAudioCopy v1.0b3"
PERFORMER "Gheorghiu, Alagna; Chailly, Orchestra e Core del Tratro Alla Scala di Millano"
TITLE "La Boheme (CD 1)"
FILE "01. Questo Mar Rosso mi ammollisce e assidera.wav" WAVE
TRACK 01 AUDIO
TITLE "Questo Mar Rosso mi ammollisce e assidera"
PERFORMER "Gheorghiu, Alagna; Chailly, Orchestra e Core del Tratro Alla Scala di Millano"
INDEX 01 00:00:00
FILE "02. Pensier profondo!.wav" WAVE
TRACK 02 AUDIO
TITLE "Pensier profondo!"
PERFORMER "Gheorghiu, Alagna; Chailly, Orchestra e Core del Tratro Alla Scala di Millano"
INDEX 01 00:00:00
FILE "03. Legna! - Sigari! - Bordo!.wav" WAVE
TRACK 03 AUDIO
TITLE "Legna! - Sigari! - Bordo!"
PERFORMER "Gheorghiu, Alagna; Chailly, Orchestra e Core del Tratro Alla Scala di Millano"
INDEX 01 00:00:00
FILE "04. Si puo.wav" WAVE
TRACK 04 AUDIO
TITLE "Si puo?"
PERFORMER "Gheorghiu, Alagna; Chailly, Orchestra e Core del Tratro Alla Scala di Millano"
INDEX 01 00:00:00
FILE "05. Io resto per terminar l'articolo di fondo.wav" WAVE
TRACK 05 AUDIO
TITLE "Io resto per terminar l'articolo di fondo"
PERFORMER "Gheorghiu, Alagna; Chailly, Orchestra e Core del Tratro Alla Scala di Millano"
INDEX 01 00:00:00
FILE "06. Chi e la! - Scusi.wav" WAVE
TRACK 06 AUDIO
TITLE "Chi e la?! - Scusi"
PERFORMER "Gheorghiu, Alagna; Chailly, Orchestra e Core del Tratro Alla Scala di Millano"
INDEX 01 00:00:00
FILE "07. Si sente meglio.wav" WAVE
TRACK 07 AUDIO
TITLE "Si sente meglio?"
PERFORMER "Gheorghiu, Alagna; Chailly, Orchestra e Core del Tratro Alla Scala di Millano"
INDEX 01 00:00:00
FILE "08. Che gelida manina.wav" WAVE
TRACK 08 AUDIO
TITLE "Che gelida manina"
PERFORMER "Gheorghiu, Alagna; Chailly, Orchestra e Core del Tratro Alla Scala di Millano"
INDEX 01 00:00:00
FILE "09. Si. Mi chiamano Mimi.wav" WAVE
TRACK 09 AUDIO
TITLE "Si. Mi chiamano Mimi"
PERFORMER "Gheorghiu, Alagna; Chailly, Orchestra e Core del Tratro Alla Scala di Millano"
INDEX 01 00:00:00
FILE "10. O soave fanciulla.wav" WAVE
TRACK 10 AUDIO
TITLE "O soave fanciulla"
PERFORMER "Gheorghiu, Alagna; Chailly, Orchestra e Core del Tratro Alla Scala di Millano"
INDEX 01 00:00:00
TRACK 11 AUDIO
TITLE "Aranci, datteri, caldi i marroni!"
PERFORMER "Gheorghiu, Alagna; Chailly, Orchestra e Core del Tratro Alla Scala di Millano"
INDEX 00 04:03:07
FILE "11. Aranci, datteri, caldi i marroni!.wav" WAVE
INDEX 01 00:00:00
FILE "12. Chi guardi.wav" WAVE
TRACK 12 AUDIO
TITLE "Chi guardi?"
PERFORMER "Gheorghiu, Alagna; Chailly, Orchestra e Core del Tratro Alla Scala di Millano"
INDEX 01 00:00:00
FILE "13. Viva Parpignol!.wav" WAVE
TRACK 13 AUDIO
TITLE "Viva Parpignol!"
PERFORMER "Gheorghiu, Alagna; Chailly, Orchestra e Core del Tratro Alla Scala di Millano"
INDEX 01 00:00:00
FILE "14. Oh! - Essa! - Musetta!.wav" WAVE
TRACK 14 AUDIO
TITLE "Oh! - Essa! - Musetta!"
PERFORMER "Gheorghiu, Alagna; Chailly, Orchestra e Core del Tratro Alla Scala di Millano"
INDEX 01 00:00:00
FILE "15. Quando me n'vo.wav" WAVE
TRACK 15 AUDIO
TITLE "Quando me n'vo"
PERFORMER "Gheorghiu, Alagna; Chailly, Orchestra e Core del Tratro Alla Scala di Millano"
INDEX 01 00:00:00
FILE "16. Chi l'ha richiesto.wav" WAVE
TRACK 16 AUDIO
TITLE "Chi l'ha richiesto?"
PERFORMER "Gheorghiu, Alagna; Chailly, Orchestra e Core del Tratro Alla Scala di Millano"
INDEX 01 00:00:00

La Boheme (CD 2).cue

REM GENRE Opera
REM DATE 1999
REM DISCID E20B850F
REM COMMENT "ExactAudioCopy v1.0b3"
PERFORMER "Gheorghiu, Alagna; Chailly, Orchestra e Core del Tratro Alla Scala di Millano"
TITLE "La Boheme (CD 2)"
FILE "01. Ohe, la, la guardie! Aprite!.wav" WAVE
TRACK 01 AUDIO
TITLE "Ohe, la, la guardie! Aprite!"
PERFORMER "Gheorghiu, Alagna; Chailly, Orchestra e Core del Tratro Alla Scala di Millano"
INDEX 01 00:00:00
FILE "02. Sa dirmi, scusi, quai'e l'osteria.wav" WAVE
TRACK 02 AUDIO
TITLE "Sa dirmi, scusi, quai'e l'osteria"
PERFORMER "Gheorghiu, Alagna; Chailly, Orchestra e Core del Tratro Alla Scala di Millano"
INDEX 01 00:00:00
FILE "03. Mimi! Speravo di trovari qui.wav" WAVE
TRACK 03 AUDIO
TITLE "Mimi! Speravo di trovari qui"
PERFORMER "Gheorghiu, Alagna; Chailly, Orchestra e Core del Tratro Alla Scala di Millano"
INDEX 01 00:00:00
FILE "04. Marcello. Finalemente!.wav" WAVE
TRACK 04 AUDIO
TITLE "Marcello. Finalemente!"
PERFORMER "Gheorghiu, Alagna; Chailly, Orchestra e Core del Tratro Alla Scala di Millano"
INDEX 01 00:00:00
FILE "05. Mimi e una civetta.wav" WAVE
TRACK 05 AUDIO
TITLE "Mimi e una civetta"
PERFORMER "Gheorghiu, Alagna; Chailly, Orchestra e Core del Tratro Alla Scala di Millano"
INDEX 01 00:00:00
FILE "06. Mimi e tanto malata.wav" WAVE
TRACK 06 AUDIO
TITLE "Mimi e tanto malata"
PERFORMER "Gheorghiu, Alagna; Chailly, Orchestra e Core del Tratro Alla Scala di Millano"
INDEX 01 00:00:00
FILE "07. Donde lieta usci al tuo grido d'amore.wav" WAVE
TRACK 07 AUDIO
TITLE "Donde lieta usci al tuo grido d'amore"
PERFORMER "Gheorghiu, Alagna; Chailly, Orchestra e Core del Tratro Alla Scala di Millano"
INDEX 01 00:00:00
FILE "08. Dunque e proprio finita!.wav" WAVE
TRACK 08 AUDIO
TITLE "Dunque e proprio finita!"
PERFORMER "Gheorghiu, Alagna; Chailly, Orchestra e Core del Tratro Alla Scala di Millano"
INDEX 01 00:00:00
TRACK 09 AUDIO
TITLE "In un coupe?"
PERFORMER "Gheorghiu, Alagna; Chailly, Orchestra e Core del Tratro Alla Scala di Millano"
INDEX 00 05:08:65
FILE "09. In un coupe.wav" WAVE
INDEX 01 00:00:00
FILE "10. O Mimi, tu piu non torni.wav" WAVE
TRACK 10 AUDIO
TITLE "O Mimi, tu piu non torni"
PERFORMER "Gheorghiu, Alagna; Chailly, Orchestra e Core del Tratro Alla Scala di Millano"
INDEX 01 00:00:00
FILE "11. Gavotta! Minuetto! Pavanella! Fandango!.wav" WAVE
TRACK 11 AUDIO
TITLE "Gavotta! Minuetto! Pavanella! Fandango!"
PERFORMER "Gheorghiu, Alagna; Chailly, Orchestra e Core del Tratro Alla Scala di Millano"
INDEX 01 00:00:00
FILE "12. C'e Mimi!.wav" WAVE
TRACK 12 AUDIO
TITLE "C'e Mimi!"
PERFORMER "Gheorghiu, Alagna; Chailly, Orchestra e Core del Tratro Alla Scala di Millano"
INDEX 01 00:00:00
FILE "13. Vecchia zimarra, senti.wav" WAVE
TRACK 13 AUDIO
TITLE "Vecchia zimarra, senti"
PERFORMER "Gheorghiu, Alagna; Chailly, Orchestra e Core del Tratro Alla Scala di Millano"
INDEX 01 00:00:00
FILE "14. Sono andati Fingevo di dormire.wav" WAVE
TRACK 14 AUDIO
TITLE "Sono andati? Fingevo di dormire"
PERFORMER "Gheorghiu, Alagna; Chailly, Orchestra e Core del Tratro Alla Scala di Millano"
INDEX 01 00:00:00
FILE "15. Che avvien Nulla. Sto bene.wav" WAVE
TRACK 15 AUDIO
TITLE "Che avvien? Nulla. Sto bene"
PERFORMER "Gheorghiu, Alagna; Chailly, Orchestra e Core del Tratro Alla Scala di Millano"
INDEX 01 00:00:00



Показать сообщения:    

Текущее время: 07-Дек 13:39

Часовой пояс: UTC + 3


Вы не можете начинать темы
Вы не можете отвечать на сообщения
Вы не можете редактировать свои сообщения
Вы не можете удалять свои сообщения
Вы не можете голосовать в опросах
Вы не можете прикреплять файлы к сообщениям
Вы не можете скачивать файлы