Загадка Рихтера (Георгий Ананов, Наталья Передельская) [20.03.2015, документальный, биографический, SATRip]


Статистика раздачи [Обновить пиров]
Размер:  738 MB   |    Зарегистрирован:  8 месяцев 14 дней   |    Скачан:  1 раз

Полного источника не было: 7 дней

 
   
 
 
 

[Цитировать]

Загадка Рихтера
Дата/Год выпуска: 20.03.2015
Страна: Россия
Жанр: документальный, биографический
Продолжительность: 00:51:34
Перевод: Не требуется
Русские субтитры: нет
Оригинальная аудиодорожка: русская
Режиссер: Георгий Ананов, Наталья Передельская
Телеканал: Первый
Описание: Его назвали лучшим пианистом XX века и первым среди равных, а его концерты - мистическими. Но в игре Святослава Рихтера была не только страсть. Слышалось в ней какое-то странное смирение, смешанное с болью и страданиями.
В его жизни было немало драм и трагедий. Его пытались не раз арестовать в военное время, когда шли гонения на русских немцев. Но самая главная трагедия Рихтера связана с его родителями. Его отец, Теофил Рихтер, был расстрелян по приговору военного трибунала. А мать, Анна Павловна, вскоре вышла замуж за бывшего преподавателя консерватории, тоже немца по национальности, и в конце войны уехала вместе с новым мужем в Германию.
Это известие стало для Рихтера сокрушительным. После этого он решил для себя: "У меня не может быть семьи, только искусство". Именно тогда Рихтер решил отречься от всех обычных радостей - семьи, друзей, детей... Чтобы ничего не мешало творить. У него даже учеников не было. Он не хотел тратить время на что-то, кроме творчества...
Доп. информация: К 100-летию Святослава Рихтера
В фильме принимают участие: Юрий Башмет - альтист, дирижёр, народный артист СССР, Ирина Антонова - президент Государственного музея изобразительных искусств имени А.С. Пушкина, Бруно Монсенжон, режиссёр, скрипач (Франция), Дмитрий Маликов - певец, пианист, заслуженный артист России, Михаил Казиник - скрипач, музыковед, Святослав Писаренко - президент Фонда Рихтера, Денис Королёв - солист Большого театра, Игорь Оболенский - писатель, Майя Улановская - приёмная дочь Веры Прохоровой, Юрий Дикий - профессор Одесской консерватории.
качество: SATRip
формат: AVI
Видео: 704x448 (1.57:1), 25 fps, XviD MPEG-4 ~1800 kbps avg, 0.20 bit/pixel
Аудио: 48 kHz, AC3, 2 ch, ~192.00 kbps avg

MediaInfo

General
Complete name : F:\С ноута\Загадка Рихтера\Zagadka.Rihtera.SATRip.avi
Format : AVI
Format/Info : Audio Video Interleave
File size : 738 MiB
Duration : 51mn 34s
Overall bit rate : 2 002 Kbps
Writing application : VirtualDubMod 1.5.10.3 | www.virtualdub-fr.org || (build 2550/release)
Writing library : VirtualDubMod build 2550/release
Video
ID : 0
Format : MPEG-4 Visual
Format profile : Advanced Simple@L5
Format settings, BVOP : 2
Format settings, QPel : No
Format settings, GMC : No warppoints
Format settings, Matrix : Default (H.263)
Codec ID : XVID
Codec ID/Hint : XviD
Duration : 51mn 34s
Bit rate : 1 800 Kbps
Width : 704 pixels
Height : 448 pixels
Display aspect ratio : 16:10
Frame rate : 25.000 fps
Color space : YUV
Chroma subsampling : 4:2:0
Bit depth : 8 bits
Scan type : Progressive
Compression mode : Lossy
Bits/(Pixel*Frame) : 0.228
Stream size : 664 MiB (90%)
Writing library : XviD 1.2.1 (UTC 2008-12-04)
Audio
ID : 1
Format : AC-3
Format/Info : Audio Coding 3
Mode extension : CM (complete main)
Format settings, Endianness : Big
Codec ID : 2000
Duration : 51mn 34s
Bit rate mode : Constant
Bit rate : 192 Kbps
Channel(s) : 2 channels
Channel positions : Front: L R
Sampling rate : 48.0 KHz
Bit depth : 16 bits
Compression mode : Lossy
Stream size : 70.8 MiB (10%)
Alignment : Split accross interleaves
Interleave, duration : 40 ms (1.00 video frame)
Interleave, preload duration : 500 ms

Скриншоты

[teatrix.ru].t20693.torrent 
Торрент: Зарегистрирован [ 2016-03-20 00:27 ] · 2B173CC8225124E52ADB295E81820F83D9D3DE28

Скачать .torrent

Скачать

15 KB

Статус: проверено
Скачан: 1 раз
Размер: 738 MB
terms.php



Быстрый ответ

Имя:

      
Для отправки сообщений необходимо включить JavaScript
Показать сообщения:    

Текущее время: 03-Дек 12:35

Часовой пояс: UTC + 3


Вы можете начинать темы
Вы можете отвечать на сообщения
Вы не можете редактировать свои сообщения
Вы не можете удалять свои сообщения
Вы не можете голосовать в опросах
Вы не можете прикреплять файлы к сообщениям
Вы можете скачивать файлы