[TR24][SM][OF] Hans Pfitzner - The Romantic Cello Concerto Vol. 4 : Cello Concertos & Duo - Alban Gerhardt, Sebastian Weigle & Rundfunk-Sinfonieorchester Berlin - 2014 (Classical)


Статистика раздачи [Обновить пиров]
Размер:  1.16 GB   |    Зарегистрирован:  8 месяцев 19 дней   |    Скачан:  0 раз

Полного источника не было: Никогда

 
   
 
 
 

[Цитировать]

·
Hans Pfitzner (1869 - 1949)Жанр: Concerto
Носитель: Official Digital Download
Год издания диска: 2014
Издатель(лейбл): Hyperion records
Номер по каталогу: CDA67906
Продолжительность: 01:07:28
Наличие сканов в содержимом раздачи: cover & booklet
Контейнер: FLAC (*.flac)
Разрядность: 24/96
Количество каналов: 2.0
Формат: tracks
Источник: hyperion-records.co.uk
Pелизер: WEB (thanks to the original customer)
Alban Gerhardt cello
Gergana Gergova violin *
Rundfunk-Sinfonieorchester Berlin
Sebastian Weigle conductor

Треклист

Cello Concerto in A minorOp posth. (1888)
01 Andante molto sostenuto – Allegro [10'25]
02 Adagio molto tranquillo [12'51]
Cello Concerto in A minor Op 52 (1943)
03 Movement 1: Ruhig [7'37]
04 Movement 2: Nicht zu schnell [3'00]
05 Movement 3: Feierlich [2'49]
06 Movement 4: Allegretto [4'33]
Cello Concerto in G major Op 42 (1935)
07 Ziemlich ruhig, schwebend – [3'29]
08 Sehr langsam – Beschleunigt – Allegro – [3'58]
09 Ruhiges Anfangstempo – [2'00]
10 A tempo – [1'51]
11 Langsamer a tempo [3'03]
Duo Op 43 (1937) for violin, cello and small orchestra *
12 Allegro moderato – [5'39]
13 Moderato – [1'50]
14 Ganze Takte [4'23]

Dynamic Range Meter

foobar2000 1.2.6 / Dynamic Range Meter 1.1.1
log date: 2015-03-22 20:53:25
--------------------------------------------------------------------------------
Analyzed: Alban Gerhardt, Gergana Gergova, Sebastian Weigle, Rundfunk-Sinfonieorchester Berlin / Pfitzner: Cello Concertos (1-3)
Alban Gerhardt, Sebastian Weigle, Rundfunk-Sinfonieorchester Berlin / Pfitzner: Cello Concertos (4-14)
--------------------------------------------------------------------------------
DR Peak RMS Duration Track
--------------------------------------------------------------------------------
DR12 -5.95 dB -22.66 dB 5:38 12-Duo, Op 43 - 1: Allegro moderato –
DR12 -6.71 dB -26.56 dB 1:50 13-Duo, Op 43 - 2: Moderato –
DR14 -1.69 dB -21.04 dB 4:23 14-Duo, Op 43 - 3: Ganze Takte
DR16 -0.27 dB -22.42 dB 10:25 01-Cello Concerto in A minor, Op posth. - 1: Andante molto sostenuto – Allegro
DR17 -0.10 dB -23.29 dB 12:51 02-Cello Concerto in A minor, Op posth. - 2: Adagio molto tranquillo
DR14 -1.80 dB -23.74 dB 7:37 03-Cello Concerto in A minor, Op 52 - 1: Ruhig
DR14 -1.75 dB -22.25 dB 3:00 04-Cello Concerto in A minor, Op 52 - 2: Nicht zu schnell
DR12 -12.69 dB -29.97 dB 2:49 05-Cello Concerto in A minor, Op 52 - 3: Feierlich
DR15 -1.02 dB -23.34 dB 4:33 06-Cello Concerto in A minor, Op 52 - 4: Allegretto
DR13 -8.01 dB -26.20 dB 3:29 07-Cello Concerto in G major, Op 42 - 1: Ziemlich ruhig, schwebend –
DR16 -1.47 dB -23.07 dB 3:58 08-Cello Concerto in G major, Op 42 - 2: Sehr langsam – Beschleunigt – Allegro –
DR11 -9.19 dB -26.12 dB 2:00 09-Cello Concerto in G major, Op 42 - 3: Ruhiges Anfangstempo –
DR12 -4.33 dB -22.50 dB 1:51 10-Cello Concerto in G major, Op 42 - 4: A tempo –
DR13 -7.00 dB -26.36 dB 3:03 11-Cello Concerto in G major, Op 42 - 5: Langsamer a tempo
--------------------------------------------------------------------------------
Number of tracks: 14
Official DR value: DR14
Samplerate: 96000 Hz
Channels: 2
Bits per sample: 24
Bitrate: 2335 kbps
Codec: FLAC
================================================================================
[teatrix.ru].t20694.torrent 
Торрент: Зарегистрирован [ 2016-03-20 00:27 ] · 9998F855DB1CB33D066A999CC7B904C01F3B41D2

Скачать .torrent

Скачать

14 KB

Статус: проверено
Скачан: 0 раз
Размер: 1.16 GB
terms.php



Быстрый ответ

Имя:

      
Для отправки сообщений необходимо включить JavaScript
Показать сообщения:    

Текущее время: 08-Дек 01:18

Часовой пояс: UTC + 3


Вы можете начинать темы
Вы можете отвечать на сообщения
Вы не можете редактировать свои сообщения
Вы не можете удалять свои сообщения
Вы не можете голосовать в опросах
Вы не можете прикреплять файлы к сообщениям
Вы можете скачивать файлы