(Orchestral) Лядов (Lyadov) - Orchestral Works (Василий Синайский) - 2001, FLAC (image+.cue) lossless


 

[Цитировать]

Лядов (Lyadov) - Orchestral Works (Василий Синайский) - 2001
Жанр: Orchestral
Год издания диска: 2001
Издатель (лейбл): Chandos
Номер по каталогу: CHAN 9911
Дата записи: 2000
Аудиокодек: FLAC
Тип рипа: image+.cue
Битрейт аудио: lossless
Продолжительность: 01:06:34
Источник: odeonmusic
Наличие сканов в содержимом раздачи: да
Треклист:
Anatol Lyadov (1855-1914):
01. Baba Yaga [0:03:30.33]
02. From the Apocalypse [0:08:44.00]
03. Polonaise [0:04:36.66]
04. The Enchanted Lake [0:07:41.13]
05. Village Scene by the Inn [0:07:10.82]
06. Kikimora [0:07:27.50]
07. Religious Chant. Moderato [0:01:59.20]
08. Christmas Carol 'Kolyada'. Allegretto [0:01:15.33]
09. Plaintive Song. Andante [0:03:36.80]
10. 'I Danced with the Gnat'. Allegretto [0:01:05.40]
11. Legend of the Birds. Allegretto [0:01:24.89]
12. Cradle Song. Moderato [0:02:03.04]
13. Round Dance. Allegro [0:00:49.36]
14. Village Dance Song. Vivo [0:01:44.06]
15. Scherzo. Allegretto - Vivace - Trio. Allegretto - Vivace - Poco mosso [0:06:14.13]
16. Polonaise. Moderato [0:07:11.84]
Исполнители:
BBC Philharmonic
Vassily Sinaisky - conductor

Лог создания рипа

Exact Audio Copy V1.0 beta 4 from 7. December 2014
EAC extraction logfile from 3. March 2015, 15:50
Vassily Sinaisky / Lyadov - Orchestral Works - Vassily Sinaisky
Used drive : PLDS DVD-RW DA8A5SH Adapter: 1 ID: 0
Read mode : Secure
Utilize accurate stream : Yes
Defeat audio cache : Yes
Make use of C2 pointers : Yes
Read offset correction : 6
Overread into Lead-In and Lead-Out : No
Fill up missing offset samples with silence : Yes
Delete leading and trailing silent blocks : No
Null samples used in CRC calculations : Yes
Used interface : Native Win32 interface for Win NT & 2000
Used output format : User Defined Encoder
Selected bitrate : 896 kBit/s
Quality : High
Add ID3 tag : No
Command line compressor : J:\EAC\Exact Audio Copy\Flac\flac.exe
Additional command line options : -8 -V -T "TITLE=%title%" -T "ARTIST=%artist%" -T "ALBUMARTIST=%albumartist%" -T "ALBUM=%albumtitle%" -T "DATE=%year%" -T "TRACKNUMBER=%tracknr%" -T "TRACKTOTAL=%numtracks%" -T "GENRE=%genre%" -T "COMMENT=%comment%" -T "PERFORMER=%albuminterpret%" -T "COMPOSER=%composer%" %source% -o %dest%
TOC of the extracted CD
Track | Start | Length | Start sector | End sector
---------------------------------------------------------
1 | 0:00.00 | 3:30.25 | 0 | 15774
2 | 3:30.25 | 8:44.00 | 15775 | 55074
3 | 12:14.25 | 4:36.50 | 55075 | 75824
4 | 16:51.00 | 7:41.10 | 75825 | 110409
5 | 24:32.10 | 7:10.62 | 110410 | 142721
6 | 31:42.72 | 7:27.38 | 142722 | 176284
7 | 39:10.35 | 1:59.15 | 176285 | 185224
8 | 41:09.50 | 1:15.25 | 185225 | 190874
9 | 42:25.00 | 3:36.60 | 190875 | 207134
10 | 46:01.60 | 1:05.30 | 207135 | 212039
11 | 47:07.15 | 1:24.67 | 212040 | 218406
12 | 48:32.07 | 2:03.03 | 218407 | 227634
13 | 50:35.10 | 0:49.27 | 227635 | 231336
14 | 51:24.37 | 1:44.05 | 231337 | 239141
15 | 53:08.42 | 6:14.10 | 239142 | 267201
16 | 59:22.52 | 7:11.63 | 267202 | 299589
Range status and errors
Selected range
Filename K:\Ripped\[7580] Lyadov – Orchestral Works – Vassily Sinaisky\Lyadov - Orchestral Works - Vassily Sinaisky.wav
Peak level 99.0 %
Extraction speed 4.6 X
Range quality 100.0 %
Test CRC 22BF9995
Copy CRC 22BF9995
Copy OK
No errors occurred
AccurateRip summary
Track 1 accurately ripped (confidence 2) [D116204B] (AR v2)
Track 2 accurately ripped (confidence 2) [72B68949] (AR v2)
Track 3 accurately ripped (confidence 2) [7AE6C238] (AR v2)
Track 4 accurately ripped (confidence 2) [C019BCB1] (AR v2)
Track 5 accurately ripped (confidence 2) [E5D31577] (AR v2)
Track 6 accurately ripped (confidence 2) [3F68803E] (AR v2)
Track 7 accurately ripped (confidence 2) [A52F8FF8] (AR v2)
Track 8 accurately ripped (confidence 2) [AD6D5512] (AR v2)
Track 9 accurately ripped (confidence 2) [06BC92AB] (AR v2)
Track 10 accurately ripped (confidence 2) [FF2C96BB] (AR v2)
Track 11 accurately ripped (confidence 2) [4111B145] (AR v2)
Track 12 accurately ripped (confidence 2) [FB0A5F81] (AR v2)
Track 13 accurately ripped (confidence 2) [04EACBFB] (AR v2)
Track 14 accurately ripped (confidence 2) [6441A4B8] (AR v2)
Track 15 accurately ripped (confidence 2) [F246B946] (AR v2)
Track 16 accurately ripped (confidence 2) [99D5156A] (AR v2)
All tracks accurately ripped
End of status report
==== Log checksum 3923C77C8BE8A6D0DE8DA04484EA1E5050F5C80BFD4D8DDC8CCEE8CD685F654E ====

Содержание индексной карты (.CUE)

REM GENRE Classical
REM DATE 2001
REM DISCID DA0F9A10
REM COMMENT "ExactAudioCopy v1.0b4"
FILE "Lyadov - Orchestral Works - Vassily Sinaisky.flac" WAVE
TRACK 01 AUDIO
INDEX 01 00:00:00
TRACK 02 AUDIO
INDEX 00 03:27:67
INDEX 01 03:30:25
TRACK 03 AUDIO
INDEX 00 12:11:57
INDEX 01 12:14:25
TRACK 04 AUDIO
INDEX 00 16:48:72
INDEX 01 16:51:00
TRACK 05 AUDIO
INDEX 00 24:29:15
INDEX 01 24:32:10
TRACK 06 AUDIO
INDEX 00 31:40:25
INDEX 01 31:42:72
TRACK 07 AUDIO
INDEX 00 39:08:25
INDEX 01 39:10:35
TRACK 08 AUDIO
INDEX 01 41:09:50
TRACK 09 AUDIO
INDEX 01 42:25:00
TRACK 10 AUDIO
INDEX 01 46:01:60
TRACK 11 AUDIO
INDEX 01 47:07:15
TRACK 12 AUDIO
INDEX 01 48:32:07
TRACK 13 AUDIO
INDEX 01 50:35:10
TRACK 14 AUDIO
INDEX 01 51:24:37
TRACK 15 AUDIO
INDEX 00 53:05:27
INDEX 01 53:08:42
TRACK 16 AUDIO
INDEX 00 59:21:15
INDEX 01 59:22:52

Лог проверки качества

Started at: ïîíåäåëüíèê, 23. 03. 2015. - 20:25.00
1 file found
1 -===- H:\MUSIC\Not Listened Music\#ORCHESTRAL\Lyadov - Orchestral Works\Lyadov - Orchestral Works - Vassily Sinaisky.flac
Extracted successfully
Conclusion: this track is MPEG with probability 89%
Tempfile successfully deleted.
Finished at: ïîíåäåëüíèê, 23. 03. 2015. - 20:27.29 (operation time: 0:02.29)

Скриншот спектра частот




Показать сообщения:    

Текущее время: 11-Дек 07:14

Часовой пояс: UTC + 3


Вы не можете начинать темы
Вы не можете отвечать на сообщения
Вы не можете редактировать свои сообщения
Вы не можете удалять свои сообщения
Вы не можете голосовать в опросах
Вы не можете прикреплять файлы к сообщениям
Вы не можете скачивать файлы