Кумиры экрана. Георгий Юматов (Руслан Заварзин) [2000, Личности и кумиры, DVB]


Статистика раздачи [Обновить пиров]
Размер:  511 MB   |    Зарегистрирован:  8 месяцев 16 дней   |    Скачан:  0 раз

Полного источника не было: Никогда

 
   
 
 
 

[Цитировать]

Кумиры экрана. Георгий Юматов
Дата/Год выпуска: 2000
Страна: Россия
Жанр: Личности и кумиры
Продолжительность: 00:25:44
Перевод: Не требуется
Доп. инфо о переводе: Cтудия / издатель: ВТВ-сервис
Режиссер: Руслан Заварзин
Телеканал: Ретро
Описание: Георгий Александрович Юматов родился 11 марта 1926 года в Москве. Участник Великой Отечественной войны. В 1942 году был зачислен юнгой на торпедный катер «Отважный», а через год стал рулевым. За время Великой Отечественной войны несколько раз был ранен и контужен.После войны возвратился в Москву. Его сразу заметил режиссёр Григорий Александров и пригласил в эпизод фильма «Весна». С 1945 года Юматов — актёр киностудии «Мосфильм» и актёр Театра-студии киноактёра.
Сергей Герасимов взял молодого актёра в свою картину «Молодая гвардия», но настоящая слава и любовь зрителей пришла к Георгию Юматову в 1950-е годы, после фильмов «Адмирал Нахимов», «Корабли штурмуют бастионы», «Герои Шипки», «Педагогическая поэма», «Разные судьбы», «Они были первыми». Наибольшую популярность он получил после фильма «Офицеры», в котором сыграл роль Алексея Трофимова.
Жена — актриса Муза Викторовна Крепкогорская. Познакомились во ВГИКе. Муза Викторовна всю жизнь посвятила Юматову, который брал её практически во все фильмы, в которых снимался. Она играла небольшие эпизодические роли, чтобы быть рядом с ним...
Сэмпл: https://www.sendspace.com/file/smngvh
качество: DVB
формат: MPG
Видео: MPEG2 720:576 4:3 2529 Кбит/сек 25,000 кадров/сек
Аудио: MPEG Audio 192 Кбит/сек 48,0 КГц 2 канала

MediaInfo

Общее
Полное имя : Георгий Юматов.mpg
Формат : MPEG-PS
Размер файла : 511 Мбайт
Продолжительность : 25 м.
Режим общего битрейта : Переменный
Общий поток : 2776 Кбит/сек
Видео
Идентификатор : 224 (0xE0)
Формат : MPEG Video
Версия формата : Version 2
Профиль формата : Main@Main
Параметр BVOP формата : Да
Параметр матрицы формата : Выборочная
Параметр GOP формата : M=3, N=12
Продолжительность : 25 м.
Вид битрейта : Переменный
Битрейт : 2529 Кбит/сек
Максимальный битрейт : 10000 Кбит/сек
Ширина : 720 пикселей
Высота : 576 пикселей
Соотношение сторон : 4:3
Частота кадров : 25,000 кадров/сек
Стандарт вещания : PAL
Цветовое пространство : YUV
Субдискретизация насыщенности : 4:2:0
Битовая глубина : 8 бит
Тип развёртки : Чересстрочная
Порядок развёртки : Верхнее поле первое
Метод сжатия : С потерями
Бит/(Пиксели*Кадры) : 0.244
Временной код первого кадра : 00:00:00:00
Оригинал временного кода : Group of pictures header
Размер потока : 466 Мбайт (91%)
Аудио
Идентификатор : 192 (0xC0)
Формат : MPEG Audio
Версия формата : Version 1
Профиль формата : Layer 2
Продолжительность : 25 м.
Вид битрейта : Постоянный
Битрейт : 192 Кбит/сек
Каналы : 2 канала
Частота : 48,0 КГц
Метод сжатия : С потерями
Задержка видео : 3 мс.
Размер потока : 35,4 Мбайт (7%)

Скриншоты

Запись потока *.ts произведена тюнером цифрового телевидения. В связи с тем, что не все плееры воспроизводят поток *.ts (MPEG-TS) , в данном видеофайле мной был сделан ремукс потока *.ts (MPEG-TS) в *.mpg (MPEG-PS) программой VideoReDo.
[teatrix.ru].t20703.torrent 
Торрент: Зарегистрирован [ 2016-03-20 00:25 ] · 90D5725B5D793275DF385DAA03BDD81F6F5C6DB6

Скачать .torrent

Скачать

20 KB

Статус: проверено
Скачан: 0 раз
Размер: 511 MB
terms.php



Быстрый ответ

Имя:

      
Для отправки сообщений необходимо включить JavaScript
Показать сообщения:    

Текущее время: 05-Дек 11:26

Часовой пояс: UTC + 3


Вы можете начинать темы
Вы можете отвечать на сообщения
Вы не можете редактировать свои сообщения
Вы не можете удалять свои сообщения
Вы не можете голосовать в опросах
Вы не можете прикреплять файлы к сообщениям
Вы можете скачивать файлы