Винченцо Беллини - Пуритане (Мачаидзе, Флорес) / Vincenzo Bellini - I puritani (Machaidze, Florez) Микеле Мариотти / Michele Mariotti (Pier'Alli) [2007, Opera, BDRip-AVC 720p] Sub [Русские][Eng, Ger, Fre, Ita, Esp.]


 

[Цитировать]

-Оперный театр Болоньи (Эмилия-Романья, Италия) представляет
ВИНЧЕНЦО БЕЛЛИНИ
3 ноября (November, 3) 1801 — 23 сентября (September, 23) 1835
»«П У Р И Т А Н Е»«
Либретто Карла Пеполи по мотивам одноимённого романа (1816) Вальтера Скотта
-- ГОД ЗАПИСИ 2007
РЕЖИССЁР Пьерлуиджи ПЬЕР'АЛЛИ Pierluigi Pier'alli
Язык: Итальянский
Субтитры/Subtitles: РУССКИЕ(P. Jurgenson),
English, French, German, Italian, Espanol
Продолжительность: 174 min.
•••
ЭЛЬВИРА Нино МАЧАИДЗЕ Nino Machaidze
Лорд АРТУР ТАЛЬБОТ Хуан Диего ФЛОРЕС Juan Diego Flórez
ДЖОРДЖ УОЛТОН Ильдебрандо Д'АРКАНДЖЕЛО I. D’Arcangelo
Королева ГЕНРИЕТТА Надя ПИРАЦЦИНИ Nadia Pirazzini
Сэр РИЧАРД ФОРТ Габриэле ВИВИАНИ Gabriele Viviani
Лорд УОЛТЕР УОЛТОН Уго ГУАЛЬЯРДО Ugo Guagliardo
Сэр БРУНО РОБЕРТСОН Джанлука ФЛОРИС Gianluca Floris
ХОР и ОРКЕСТР Оперного театра БОЛОНЬИ
ДИРИЖЁР Микеле МАРИОТТИ Michele Mariotti

•••
Качество видео: BDRip-AVC
♫ Sample ♫
Исходник: Blu-ray | hdclub |
Формат/Контейнер: MKV
Аудио кодек: DTS
Видео поток: 1280x720, 4000 kbps, 29,970 fps.
Аудио поток: Italian, 1509 kbps, 48,0 KHz, 6 ch original

Скриншоты

MediaInfoPart1

-

x264.log


avs [info]: 1280x720p 1:1 @ 30000/1001 fps (cfr)
x264 [info]: using SAR=1/1
x264 [info]: using cpu capabilities: MMX2 SSE2Fast LZCNT
x264 [info]: profile High, level 4.1
x264 [info]: frame I:963 Avg QP:16.64 size: 79449
x264 [info]: frame P:92942 Avg QP:18.85 size: 21929
x264 [info]: frame B:57776 Avg QP:20.56 size: 7200
x264 [info]: consecutive B-frames: 34.5% 41.0% 9.3% 15.2%
x264 [info]: mb I I16..4: 14.8% 65.5% 19.8%
x264 [info]: mb P I16..4: 0.5% 1.4% 0.3% P16..4: 50.9% 18.3% 14.3% 0.0% 0.0% skip:14.4%
x264 [info]: mb B I16..4: 0.0% 0.1% 0.0% B16..8: 49.3% 4.8% 0.9% direct: 2.6% skip:42.3% L0:41.5% L1:50.8% BI: 7.6%
x264 [info]: 8x8 transform intra:65.8% inter:76.6%
x264 [info]: direct mvs spatial:83.3% temporal:16.7%
x264 [info]: coded y,uvDC,uvAC intra: 70.0% 69.5% 35.7% inter: 26.3% 30.0% 0.7%
x264 [info]: i16 v,h,dc,p: 36% 15% 22% 28%
x264 [info]: i8 v,h,dc,ddl,ddr,vr,hd,vl,hu: 8% 5% 6% 11% 15% 15% 13% 13% 13%
x264 [info]: i4 v,h,dc,ddl,ddr,vr,hd,vl,hu: 11% 5% 3% 10% 15% 16% 14% 12% 13%
x264 [info]: i8c dc,h,v,p: 42% 26% 21% 11%
x264 [info]: Weighted P-Frames: Y:1.5% UV:0.5%
x264 [info]: ref P L0: 56.2% 7.6% 23.5% 12.7% 0.1%
x264 [info]: ref B L0: 76.5% 21.2% 2.4%
x264 [info]: ref B L1: 96.3% 3.7%
x264 [info]: kb/s:4000.02
encoded 151681 frames, 8.12 fps, 4000.02 kb/s
Final statistics
-
General
Unique ID : 222996783220416563127244957160147236683 (0xA7C39E445CB2E56783231944A83FB74B)
Complete name : I Puritani (Florez, Machaidze) BDRip-AVC\I Puritani (Florez, Machaidze) Part1.mkv
Format : Matroska
Format version : Version 4 / Version 2
File size : 3.25 GiB
Duration : 1h 24mn
Overall bit rate : 5 512 Kbps
Encoded date : UTC 2015-03-20 09:09:51
Writing application : mkvmerge v7.6.0 ('Garden of Dreams') 32bit built on Feb 8 2015 12:51:39
Writing library : libebml v1.3.1 + libmatroska v1.4.2
DURATION : 01:19:07.670000000
NUMBER_OF_FRAMES : 446
NUMBER_OF_BYTES : 15500
_STATISTICS_WRITING_APP : mkvmerge v7.6.0 ('Garden of Dreams') 32bit built on Feb 8 2015 12:51:39
_STATISTICS_WRITING_DATE_UTC : 2015-03-20 09:09:51
_STATISTICS_TAGS : BPS DURATION NUMBER_OF_FRAMES NUMBER_OF_BYTES
Video
ID : 1
Format : AVC
Format/Info : Advanced Video Codec
Format profile : High@L4.1
Format settings, CABAC : Yes
Format settings, ReFrames : 4 frames
Codec ID : V_MPEG4/ISO/AVC
Duration : 1h 24mn
Bit rate : 4 000 Kbps
Width : 1 280 pixels
Height : 720 pixels
Display aspect ratio : 16:9
Frame rate mode : Constant
Frame rate : 29.970 fps
Color space : YUV
Chroma subsampling : 4:2:0
Bit depth : 8 bits
Scan type : Progressive
Bits/(Pixel*Frame) : 0.145
Stream size : 2.29 GiB (71%)
Writing library : x264 core 142 r2431 ac76440
Encoding settings : cabac=1 / ref=3 / deblock=1:0:0 / analyse=0x3:0x113 / me=umh / subme=9 / psy=1 / psy_rd=1.00:0.00 / mixed_ref=1 / me_range=16 / chroma_me=1 / trellis=1 / 8x8dct=1 / cqm=0 / deadzone=21,11 / fast_pskip=1 / chroma_qp_offset=-2 / threads=4 / lookahead_threads=1 / sliced_threads=0 / nr=0 / decimate=1 / interlaced=0 / bluray_compat=0 / constrained_intra=0 / bframes=3 / b_pyramid=2 / b_adapt=1 / b_bias=0 / direct=3 / weightb=1 / open_gop=0 / weightp=2 / keyint=300 / keyint_min=29 / scenecut=40 / intra_refresh=0 / rc_lookahead=40 / rc=2pass / mbtree=1 / bitrate=4000 / ratetol=1.0 / qcomp=0.60 / qpmin=10 / qpmax=51 / qpstep=4 / cplxblur=20.0 / qblur=0.5 / vbv_maxrate=62500 / vbv_bufsize=78125 / nal_hrd=none / filler=0 / ip_ratio=1.40 / aq=1:1.00
Language : English
Default : Yes
Forced : No
DURATION : 01:24:21.089000000
NUMBER_OF_FRAMES : 151681
NUMBER_OF_BYTES : 2530557014
_STATISTICS_WRITING_APP : mkvmerge v7.6.0 ('Garden of Dreams') 32bit built on Feb 8 2015 12:51:39
_STATISTICS_WRITING_DATE_UTC : 2015-03-20 09:09:51
_STATISTICS_TAGS : BPS DURATION NUMBER_OF_FRAMES NUMBER_OF_BYTES
Audio
ID : 2
Format : DTS
Format/Info : Digital Theater Systems
Mode : 16
Format settings, Endianness : Big
Codec ID : A_DTS
Duration : 1h 24mn
Bit rate mode : Constant
Bit rate : 1 509 Kbps
Channel(s) : 5 channels
Channel positions : Front: L C R, Side: L R
Sampling rate : 48.0 KHz
Bit depth : 24 bits
Compression mode : Lossy
Stream size : 910 MiB (27%)
Language : Italian
Default : Yes
Forced : No
Text #1
ID : 3
Format : ASS
Codec ID : S_TEXT/ASS
Codec ID/Info : Advanced Sub Station Alpha
Compression mode : Lossless
Language : Russian
Default : Yes
Forced : No
Text #2
ID : 4
Format : UTF-8
Codec ID : S_TEXT/UTF8
Codec ID/Info : UTF-8 Plain Text
Language : English
Default : No
Forced : No
Text #3
ID : 5
Format : UTF-8
Codec ID : S_TEXT/UTF8
Codec ID/Info : UTF-8 Plain Text
Language : German
Default : No
Forced : No
Text #4
ID : 6
Format : UTF-8
Codec ID : S_TEXT/UTF8
Codec ID/Info : UTF-8 Plain Text
Language : French
Default : No
Forced : No
Text #5
ID : 7
Format : UTF-8
Codec ID : S_TEXT/UTF8
Codec ID/Info : UTF-8 Plain Text
Language : Italian
Default : No
Forced : No
Text #6
ID : 8
Format : UTF-8
Codec ID : S_TEXT/UTF8
Codec ID/Info : UTF-8 Plain Text
Language : Spanish
Default : No
Forced : No

Part2

-

x264.log


avs [info]: 1280x720p 1:1 @ 30000/1001 fps (cfr)
x264 [info]: using SAR=1/1
x264 [info]: using cpu capabilities: MMX2 SSE2Fast LZCNT
x264 [info]: profile High, level 4.1
x264 [info]: frame I:540 Avg QP:15.28 size: 69045
x264 [info]: frame P:60163 Avg QP:17.56 size: 19796
x264 [info]: frame B:23651 Avg QP:19.11 size: 7569
x264 [info]: consecutive B-frames: 50.2% 36.5% 2.5% 10.9%
x264 [info]: mb I I16..4: 15.6% 67.1% 17.4%
x264 [info]: mb P I16..4: 0.5% 1.0% 0.1% P16..4: 53.0% 19.7% 14.7% 0.0% 0.0% skip:11.1%
x264 [info]: mb B I16..4: 0.0% 0.0% 0.0% B16..8: 50.6% 5.7% 1.0% direct: 2.9% skip:39.7% L0:42.6% L1:50.2% BI: 7.2%
x264 [info]: 8x8 transform intra:64.4% inter:77.6%
x264 [info]: direct mvs spatial:84.4% temporal:15.6%
x264 [info]: coded y,uvDC,uvAC intra: 65.4% 84.3% 60.1% inter: 30.1% 39.4% 2.4%
x264 [info]: i16 v,h,dc,p: 43% 12% 23% 22%
x264 [info]: i8 v,h,dc,ddl,ddr,vr,hd,vl,hu: 7% 4% 8% 12% 15% 15% 13% 13% 13%
x264 [info]: i4 v,h,dc,ddl,ddr,vr,hd,vl,hu: 10% 4% 5% 11% 15% 15% 13% 12% 14%
x264 [info]: i8c dc,h,v,p: 46% 22% 19% 13%
x264 [info]: Weighted P-Frames: Y:1.6% UV:0.4%
x264 [info]: ref P L0: 56.8% 5.9% 23.8% 13.3% 0.2%
x264 [info]: ref B L0: 76.6% 21.4% 2.0%
x264 [info]: ref B L1: 97.6% 2.4%
x264 [info]: kb/s:3999.94
encoded 84354 frames, 7.64 fps, 3999.94 kb/s
Final statistics
-
General
Unique ID : 176085324552179958386256788260760379565 (0x8478CCC85B9EE6CA8C7790305BA4E0AD)
Complete name : I Puritani (Florez, Machaidze) BDRip-AVC\I Puritani (Florez, Machaidze) Part2.mkv
Format : Matroska
Format version : Version 4 / Version 2
File size : 1.81 GiB
Duration : 46mn 54s
Overall bit rate : 5 512 Kbps
Encoded date : UTC 2015-03-20 09:15:41
Writing application : mkvmerge v7.6.0 ('Garden of Dreams') 32bit built on Feb 8 2015 12:51:39
Writing library : libebml v1.3.1 + libmatroska v1.4.2
DURATION : 00:41:50.200000000
NUMBER_OF_FRAMES : 241
NUMBER_OF_BYTES : 7038
_STATISTICS_WRITING_APP : mkvmerge v7.6.0 ('Garden of Dreams') 32bit built on Feb 8 2015 12:51:39
_STATISTICS_WRITING_DATE_UTC : 2015-03-20 09:15:41
_STATISTICS_TAGS : BPS DURATION NUMBER_OF_FRAMES NUMBER_OF_BYTES
Video
ID : 1
Format : AVC
Format/Info : Advanced Video Codec
Format profile : High@L4.1
Format settings, CABAC : Yes
Format settings, ReFrames : 4 frames
Codec ID : V_MPEG4/ISO/AVC
Duration : 46mn 54s
Bit rate : 4 000 Kbps
Width : 1 280 pixels
Height : 720 pixels
Display aspect ratio : 16:9
Frame rate mode : Constant
Frame rate : 29.970 fps
Color space : YUV
Chroma subsampling : 4:2:0
Bit depth : 8 bits
Scan type : Progressive
Bits/(Pixel*Frame) : 0.145
Stream size : 1.28 GiB (71%)
Writing library : x264 core 142 r2431 ac76440
Encoding settings : cabac=1 / ref=3 / deblock=1:0:0 / analyse=0x3:0x113 / me=umh / subme=9 / psy=1 / psy_rd=1.00:0.00 / mixed_ref=1 / me_range=16 / chroma_me=1 / trellis=1 / 8x8dct=1 / cqm=0 / deadzone=21,11 / fast_pskip=1 / chroma_qp_offset=-2 / threads=4 / lookahead_threads=1 / sliced_threads=0 / nr=0 / decimate=1 / interlaced=0 / bluray_compat=0 / constrained_intra=0 / bframes=3 / b_pyramid=2 / b_adapt=1 / b_bias=0 / direct=3 / weightb=1 / open_gop=0 / weightp=2 / keyint=300 / keyint_min=29 / scenecut=40 / intra_refresh=0 / rc_lookahead=40 / rc=2pass / mbtree=1 / bitrate=4000 / ratetol=1.0 / qcomp=0.60 / qpmin=10 / qpmax=51 / qpstep=4 / cplxblur=20.0 / qblur=0.5 / vbv_maxrate=62500 / vbv_bufsize=78125 / nal_hrd=none / filler=0 / ip_ratio=1.40 / aq=1:1.00
Language : English
Default : Yes
Forced : No
DURATION : 00:46:54.611000000
NUMBER_OF_FRAMES : 84354
NUMBER_OF_BYTES : 1407283930
_STATISTICS_WRITING_APP : mkvmerge v7.6.0 ('Garden of Dreams') 32bit built on Feb 8 2015 12:51:39
_STATISTICS_WRITING_DATE_UTC : 2015-03-20 09:15:41
_STATISTICS_TAGS : BPS DURATION NUMBER_OF_FRAMES NUMBER_OF_BYTES
Audio
ID : 2
Format : DTS
Format/Info : Digital Theater Systems
Mode : 16
Format settings, Endianness : Big
Codec ID : A_DTS
Duration : 46mn 54s
Bit rate mode : Constant
Bit rate : 1 509 Kbps
Channel(s) : 5 channels
Channel positions : Front: L C R, Side: L R
Sampling rate : 48.0 KHz
Bit depth : 24 bits
Compression mode : Lossy
Stream size : 506 MiB (27%)
Language : Italian
Default : Yes
Forced : No
Text #1
ID : 3
Format : ASS
Codec ID : S_TEXT/ASS
Codec ID/Info : Advanced Sub Station Alpha
Compression mode : Lossless
Language : Russian
Default : Yes
Forced : No
Text #2
ID : 4
Format : UTF-8
Codec ID : S_TEXT/UTF8
Codec ID/Info : UTF-8 Plain Text
Language : English
Default : No
Forced : No
Text #3
ID : 5
Format : UTF-8
Codec ID : S_TEXT/UTF8
Codec ID/Info : UTF-8 Plain Text
Language : German
Default : No
Forced : No
Text #4
ID : 6
Format : UTF-8
Codec ID : S_TEXT/UTF8
Codec ID/Info : UTF-8 Plain Text
Language : French
Default : No
Forced : No
Text #5
ID : 7
Format : UTF-8
Codec ID : S_TEXT/UTF8
Codec ID/Info : UTF-8 Plain Text
Language : Italian
Default : No
Forced : No
Text #6
ID : 8
Format : UTF-8
Codec ID : S_TEXT/UTF8
Codec ID/Info : UTF-8 Plain Text
Language : Spanish
Default : No
Forced : No

Part3

-

x264.log


avs [info]: 1280x720p 1:1 @ 30000/1001 fps (cfr)
x264 [info]: using SAR=1/1
x264 [info]: using cpu capabilities: MMX2 SSE2Fast LZCNT
x264 [info]: profile High, level 4.1
x264 [info]: frame I:489 Avg QP:15.41 size: 68252
x264 [info]: frame P:49871 Avg QP:17.66 size: 20881
x264 [info]: frame B:27486 Avg QP:19.09 size: 8179
x264 [info]: consecutive B-frames: 39.6% 38.2% 5.3% 16.9%
x264 [info]: mb I I16..4: 12.0% 70.9% 17.1%
x264 [info]: mb P I16..4: 0.5% 1.7% 0.3% P16..4: 53.7% 20.7% 13.9% 0.0% 0.0% skip: 9.2%
x264 [info]: mb B I16..4: 0.0% 0.1% 0.0% B16..8: 50.5% 6.3% 1.2% direct: 3.4% skip:38.6% L0:43.1% L1:49.8% BI: 7.2%
x264 [info]: 8x8 transform intra:69.5% inter:77.3%
x264 [info]: direct mvs spatial:85.7% temporal:14.3%
x264 [info]: coded y,uvDC,uvAC intra: 72.6% 82.1% 48.7% inter: 30.4% 39.6% 1.9%
x264 [info]: i16 v,h,dc,p: 32% 13% 20% 35%
x264 [info]: i8 v,h,dc,ddl,ddr,vr,hd,vl,hu: 8% 5% 6% 11% 15% 15% 14% 13% 13%
x264 [info]: i4 v,h,dc,ddl,ddr,vr,hd,vl,hu: 13% 4% 3% 10% 15% 16% 13% 12% 13%
x264 [info]: i8c dc,h,v,p: 44% 22% 19% 14%
x264 [info]: Weighted P-Frames: Y:1.7% UV:0.3%
x264 [info]: ref P L0: 56.7% 6.3% 23.8% 13.0% 0.2%
x264 [info]: ref B L0: 75.5% 21.5% 3.0%
x264 [info]: ref B L1: 96.6% 3.4%
x264 [info]: kb/s:4002.44
encoded 77846 frames, 6.95 fps, 4002.44 kb/s
Final statistics
-
General
Unique ID : 184275635146233974476041986784304524250 (0x8AA23245A04C0DF681F6F1F0DF6B6BDA)
Complete name : I Puritani (Florez, Machaidze) BDRip-AVC\I Puritani (Florez, Machaidze) Part3.mkv
Format : Matroska
Format version : Version 4 / Version 2
File size : 1.67 GiB
Duration : 43mn 17s
Overall bit rate : 5 514 Kbps
Encoded date : UTC 2015-03-20 09:21:15
Writing application : mkvmerge v7.6.0 ('Garden of Dreams') 32bit built on Feb 8 2015 12:51:39
Writing library : libebml v1.3.1 + libmatroska v1.4.2
DURATION : 00:34:51.720000000
NUMBER_OF_FRAMES : 216
NUMBER_OF_BYTES : 6775
_STATISTICS_WRITING_APP : mkvmerge v7.6.0 ('Garden of Dreams') 32bit built on Feb 8 2015 12:51:39
_STATISTICS_WRITING_DATE_UTC : 2015-03-20 09:21:15
_STATISTICS_TAGS : BPS DURATION NUMBER_OF_FRAMES NUMBER_OF_BYTES
Video
ID : 1
Format : AVC
Format/Info : Advanced Video Codec
Format profile : High@L4.1
Format settings, CABAC : Yes
Format settings, ReFrames : 4 frames
Codec ID : V_MPEG4/ISO/AVC
Duration : 43mn 17s
Bit rate : 4 000 Kbps
Width : 1 280 pixels
Height : 720 pixels
Display aspect ratio : 16:9
Frame rate mode : Constant
Frame rate : 29.970 fps
Color space : YUV
Chroma subsampling : 4:2:0
Bit depth : 8 bits
Scan type : Progressive
Bits/(Pixel*Frame) : 0.145
Stream size : 1.18 GiB (71%)
Writing library : x264 core 142 r2431 ac76440
Encoding settings : cabac=1 / ref=3 / deblock=1:0:0 / analyse=0x3:0x113 / me=umh / subme=9 / psy=1 / psy_rd=1.00:0.00 / mixed_ref=1 / me_range=16 / chroma_me=1 / trellis=1 / 8x8dct=1 / cqm=0 / deadzone=21,11 / fast_pskip=1 / chroma_qp_offset=-2 / threads=4 / lookahead_threads=1 / sliced_threads=0 / nr=0 / decimate=1 / interlaced=0 / bluray_compat=0 / constrained_intra=0 / bframes=3 / b_pyramid=2 / b_adapt=1 / b_bias=0 / direct=3 / weightb=1 / open_gop=0 / weightp=2 / keyint=300 / keyint_min=29 / scenecut=40 / intra_refresh=0 / rc_lookahead=40 / rc=2pass / mbtree=1 / bitrate=4000 / ratetol=1.0 / qcomp=0.60 / qpmin=10 / qpmax=51 / qpstep=4 / cplxblur=20.0 / qblur=0.5 / vbv_maxrate=62500 / vbv_bufsize=78125 / nal_hrd=none / filler=0 / ip_ratio=1.40 / aq=1:1.00
Language : English
Default : Yes
Forced : No
DURATION : 00:43:17.461000000
NUMBER_OF_FRAMES : 77846
NUMBER_OF_BYTES : 1299524051
_STATISTICS_WRITING_APP : mkvmerge v7.6.0 ('Garden of Dreams') 32bit built on Feb 8 2015 12:51:39
_STATISTICS_WRITING_DATE_UTC : 2015-03-20 09:21:15
_STATISTICS_TAGS : BPS DURATION NUMBER_OF_FRAMES NUMBER_OF_BYTES
Audio
ID : 2
Format : DTS
Format/Info : Digital Theater Systems
Mode : 16
Format settings, Endianness : Big
Codec ID : A_DTS
Duration : 43mn 17s
Bit rate mode : Constant
Bit rate : 1 509 Kbps
Channel(s) : 5 channels
Channel positions : Front: L C R, Side: L R
Sampling rate : 48.0 KHz
Bit depth : 24 bits
Compression mode : Lossy
Stream size : 467 MiB (27%)
Language : Italian
Default : Yes
Forced : No
Text #1
ID : 3
Format : ASS
Codec ID : S_TEXT/ASS
Codec ID/Info : Advanced Sub Station Alpha
Compression mode : Lossless
Language : Russian
Default : Yes
Forced : No
Text #2
ID : 4
Format : UTF-8
Codec ID : S_TEXT/UTF8
Codec ID/Info : UTF-8 Plain Text
Language : English
Default : No
Forced : No
Text #3
ID : 5
Format : UTF-8
Codec ID : S_TEXT/UTF8
Codec ID/Info : UTF-8 Plain Text
Language : German
Default : No
Forced : No
Text #4
ID : 6
Format : UTF-8
Codec ID : S_TEXT/UTF8
Codec ID/Info : UTF-8 Plain Text
Language : French
Default : No
Forced : No
Text #5
ID : 7
Format : UTF-8
Codec ID : S_TEXT/UTF8
Codec ID/Info : UTF-8 Plain Text
Language : Italian
Default : No
Forced : No
Text #6
ID : 8
Format : UTF-8
Codec ID : S_TEXT/UTF8
Codec ID/Info : UTF-8 Plain Text
Language : Spanish
Default : No
Forced : No



Показать сообщения:    

Текущее время: 08-Дек 12:52

Часовой пояс: UTC + 3


Вы не можете начинать темы
Вы не можете отвечать на сообщения
Вы не можете редактировать свои сообщения
Вы не можете удалять свои сообщения
Вы не можете голосовать в опросах
Вы не можете прикреплять файлы к сообщениям
Вы не можете скачивать файлы