(Classical) Henri Dutilleux - Symphony No.2; Metaboles; Timbres, Espace, Mouvement - Toronto Symphony Orchestra, Jukka-Pekka Saraste - 1999, FLAC (image+.cue) lossless


 

[Цитировать]

Henri Dutilleux - Symphony No.2; Métaboles; Timbres, Espace, Mouvement - Toronto Symphony Orchestra, Jukka-Pekka Saraste
Жанр: Classical
Страна-производитель диска: Finland
Год издания диска: 1999
Издатель (лейбл): Finlandia Records
Дата записи: 1998
Аудиокодек: FLAC
Тип рипа: image+.cue
Битрейт аудио: lossless
Продолжительность: 62:34
Источник: собственный рип
Наличие сканов в содержимом раздачи: да
Треклист:
Henri Dutilleux
[1]-[3] Symphony No.2 (1959)
[4]-[8] Métaboles (1965)
[9]-[11] Timbres, Espace, Mouvement
(ou "La nuit étoilée") (1978/1991)
Исполнители:
Toronto Symphony Orchestra
Jukka-Pekka Saraste
conductor

Лог создания рипа

Exact Audio Copy V1.0 beta 3 from 29. August 2011
EAC extraction logfile from 4. December 2014, 3:00
Toronto Symphony Orchestra, Jukka-Pekka Saraste / Dutilleux - Orchestral Works
Used drive : HL-DT-STDVDRAM GU70N Adapter: 0 ID: 0
Read mode : Secure
Utilize accurate stream : Yes
Defeat audio cache : Yes
Make use of C2 pointers : No
Read offset correction : 48
Overread into Lead-In and Lead-Out : No
Fill up missing offset samples with silence : Yes
Delete leading and trailing silent blocks : No
Null samples used in CRC calculations : Yes
Used interface : Native Win32 interface for Win NT & 2000
Used output format : User Defined Encoder
Selected bitrate : 128 kBit/s
Quality : High
Add ID3 tag : No
Command line compressor : C:\Program Files (x86)\Exact Audio Copy\Flac\flac.exe
Additional command line options : -V -8 -T "Date=%year%" -T "Genre=%genre%" %source%
TOC of the extracted CD
Track | Start | Length | Start sector | End sector
---------------------------------------------------------
1 | 0:00.00 | 7:49.55 | 0 | 35229
2 | 7:49.55 | 9:06.40 | 35230 | 76219
3 | 16:56.20 | 11:22.42 | 76220 | 127411
4 | 28:18.62 | 3:19.40 | 127412 | 142376
5 | 31:38.27 | 2:50.23 | 142377 | 155149
6 | 34:28.50 | 3:05.52 | 155150 | 169076
7 | 37:34.27 | 2:32.05 | 169077 | 180481
8 | 40:06.32 | 4:18.55 | 180482 | 199886
9 | 44:25.12 | 7:45.00 | 199887 | 234761
10 | 52:10.12 | 3:50.58 | 234762 | 252069
11 | 56:00.70 | 6:33.07 | 252070 | 281551
Range status and errors
Selected range
Filename C:\temp\Dutilleux - Orchestral Works - Toronto SO, Saraste\Dutilleux - Orchestral Works.wav
Peak level 98.8 %
Extraction speed 2.2 X
Range quality 100.0 %
Test CRC CE9F77A1
Copy CRC CE9F77A1
Copy OK
No errors occurred
AccurateRip summary
Track 1 not present in database
Track 2 not present in database
Track 3 not present in database
Track 4 not present in database
Track 5 not present in database
Track 6 not present in database
Track 7 not present in database
Track 8 not present in database
Track 9 not present in database
Track 10 not present in database
Track 11 not present in database
None of the tracks are present in the AccurateRip database
End of status report
==== Log checksum 4AC4A7CBBB3F3315D32C0A0D2F4FF0207D95BAF0D990D2ABB8ABA54E4A19C17E ====



Показать сообщения:    

Текущее время: 08-Дек 19:09

Часовой пояс: UTC + 3


Вы не можете начинать темы
Вы не можете отвечать на сообщения
Вы не можете редактировать свои сообщения
Вы не можете удалять свои сообщения
Вы не можете голосовать в опросах
Вы не можете прикреплять файлы к сообщениям
Вы не можете скачивать файлы