(Opera) Gioachino Rossini - La Cenerentola / Джоаккино Россини - Золушка (Vittorio Gui; Marina de Gabarain, Alda Noni, Sesto Bruscantini, Ian Wallace, Juan Oncina), 1954 - Glyndebourne Festival / 1992, FLAC (tracks), lossless


 

[Цитировать]

Gioachino Rossini - La Cenerentola / Джоаккино Россини - Золушка (Vittorio Gui; Marina de Gabarain, Alda Noni, Sesto Bruscantini, Ian Wallace, Juan Oncina)
Жанр: Opera
Страна-производитель диска: Германия
Год издания диска: 1992
Издатель (лейбл): EMI Classics
Дата записи: 1954
Аудиокодек: FLAC
Тип рипа: tracks
Битрейт аудио: lossless
Продолжительность: 117:31
Источник: релизеры (Guillermo, Инжир)
Исполнители:
Angelina (Cenerentola) - Marina de Gabarain,
Clorinda - Alda Noni,
Tisbe - Fernanda Cadoni,
Dandini - Sesto Bruscantini,
Don Ramiro - Juan Oncina,
Don Magnifico - Ian Wallace,
Alindoro - Hervey Alan.
Vittorio Gui, Conductor,
Orchestra and Chorus of Glyndebourne Festival.

Треклист

Disc 1:
1. Overture
Act I:
2. No, no, no, non, non v'è (Clorinda/Tisbe/Cenerentola)
3. Un tantin di carità (Alidoro/Clorinda/Tisbe/Cenerentola)
4. O figlie amabili di Don Magnifico (Coro/Clorinda/Tisbe/Cenerentola/Alidoro)
5. Date lor mezzo scudo (Clorinda/Cenerentola/Alidoro)
6. Miei rampolli, miei rampolli femminini (Magnifico)
7. Sappiete che fra poco.... (Clorinda/Tisbe/Magnifico)
8. Tutto è deserto
9. Un soave non so che
10. Del barone le figlie io chiedo (Ramiro/Cenerentola/Clorinda/Tisbe)
11. Non so che dir (Ramiro)
12. Scegli la sposa, affrettati (Coro/Dandini/Clorinda/Tisbe/Magnifico/Ramiro)
13. Allegressimamente, che bei quadri! (Dandini/Clorinda/Magnifico/Ramiro/Cenerentola/Tisbe)
14. Signor ... una parola (Cenerentola/Magnifico/Dandini/Ramiro)
15. Qui nel mio codice della zitelle
16. Nel volto estatico di questo e quello (Alidoro/Magnifico/Cenerentola/Ramiro/Dandini)
17. Figlia ... Figlia voi mi chiamate? (Alidoro/Cenerentola)
18. Ma bravo, bravo, bravo (Dandini/Magnifico/Clorinda/Tisbe)
19. Conciosiacosacchè trenta botti già gustò
20. Noi Don Magnifico ... (Coro/Magnifico)
Disc 2:
1. Zitto, zitto. piano, piano (Ramiro/Dandini)
2. Principino, dove siete? (Clorinda/Tisbe/Dandini/Ramiro)
3. Venga, inoltri (Coro/Ramiro/Dandini/Alidoro/Clorinda/Tisbe)
4. Ah! se velata ancor (Coro)
5. Sprezzo quei don che versa (Cenerentola/Ramiro/Dandini/Clorinda/Tisbe)
6. Parlar, pensar vorrei (Clorinda/Ramiro/Cenerentola/Tisbe/Dandini/Alidoro)
7. Signor ... Altezza in tavola (Magnifico/Tisbe/Clorinda/Cenerentola/Ramiro/Dandini/Alidoro/Coro)
Act II:
8. Ma non fuggir - per bacco! (Dandini/Cenerentola/Ramiro/Alidoro)
9. E allor ... se non ti spiaccio (Ramiro/Alidoro)
10. Pengo adorato e caro (Ramiro/Coro)
11. Ma dunque io sono un ex?
12. Un segreto d'importanza (Dandini/Magnifico)
13. Una volta c'era un re (Cenerentola)
14. Quanto sei caro! (Cenerentola/Clorinda/Magnifico)
15. Temporale (Orchestra/Magnifico)
16. Scuate, amico (Dandini/Magnifico/Ramiro/Clorinda/Cenerentola)
17. Siete voi?
18. Ma insomma delle somme (Ramiro/Cenerentola/Clorinda/Tisbe/Dandini/Magnifico)
19. Della Fortuna instabile (Coro/Ramiro/Cenerentola/Magnifico)
20. Nacqui all'affanno e al pianto
21. Non più mesta accanto al fuoco (Tutti).

Лог создания рипаЛог создания рипа CD 1

Exact Audio Copy V1.0 beta 3 from 29. August 2011
EAC extraction logfile from 21. March 2015, 13:55
Rossini / La Cenerentola [CD 1]
Used drive : HL-DT-STDVDRAM GH22NS50 Adapter: 3 ID: 0
Read mode : Secure
Utilize accurate stream : Yes
Defeat audio cache : No
Make use of C2 pointers : Yes
Read offset correction : 667
Overread into Lead-In and Lead-Out : No
Fill up missing offset samples with silence : Yes
Delete leading and trailing silent blocks : Yes
Null samples used in CRC calculations : Yes
Used interface : Native Win32 interface for Win NT & 2000
Gap handling : Appended to previous track
Used output format : User Defined Encoder
Selected bitrate : 768 kBit/s
Quality : High
Add ID3 tag : No
Command line compressor : C:\Program Files (x86)\Exact Audio Copy\FLAC\FLAC.EXE
Additional command line options : -8 -V -T "ARTIST=%artist%" -T "TITLE=%title%" -T "ALBUM=%albumtitle%" -T "DATE=%year%" -T "TRACKNUMBER=%tracknr%" -T "GENRE=%genre%" -T "PERFORMER=%albuminterpret%" -T "COMPOSER=%composer%" %haslyrics%--tag-from-file=LYRICS="%lyricsfile%"%haslyrics% -T "ALBUMARTIST=%albumartist%" -T "DISCNUMBER=%cdnumber%" -T "TOTALDISCS=%totalcds%" -T "TOTALTRACKS=%numtracks%" -T "COMMENT=%comment%" %source% -o %dest%
TOC of the extracted CD
Track | Start | Length | Start sector | End sector
---------------------------------------------------------
1 | 0:00.33 | 7:59.10 | 33 | 35967
2 | 7:59.43 | 4:24.70 | 35968 | 55837
3 | 12:24.38 | 1:44.65 | 55838 | 63702
4 | 14:09.28 | 2:39.00 | 63703 | 75627
5 | 16:48.28 | 0:33.65 | 75628 | 78167
6 | 17:22.18 | 4:45.45 | 78168 | 99587
7 | 22:07.63 | 0:38.07 | 99588 | 102444
8 | 22:45.70 | 3:11.23 | 102445 | 116792
9 | 25:57.18 | 3:36.50 | 116793 | 133042
10 | 29:33.68 | 3:06.12 | 133043 | 147004
11 | 32:40.05 | 0:18.38 | 147005 | 148392
12 | 32:58.43 | 6:45.27 | 148393 | 178794
13 | 39:43.70 | 1:36.53 | 178795 | 186047
14 | 41:20.48 | 4:01.05 | 186048 | 204127
15 | 45:21.53 | 2:11.30 | 204128 | 213982
16 | 47:33.08 | 5:00.30 | 213983 | 236512
17 | 52:33.38 | 2:21.47 | 236513 | 247134
18 | 54:55.10 | 1:46.70 | 247135 | 255154
19 | 56:42.05 | 3:05.53 | 255155 | 269082
20 | 59:47.58 | 3:04.50 | 269083 | 282932
Track 1
Filename f:\Users\Guillermo\Desktop\EAC convertidos\01 Soloists, Glyndebourne Festival Orchestra & Chorus, V Gui , Overture.wav
Pre-gap length 0:00:02.44
Peak level 89.6 %
Extraction speed 18.6 X
Track quality 100.0 %
Test CRC EA1173BF
Copy CRC EA1173BF
Copy OK
Track 2
Filename f:\Users\Guillermo\Desktop\EAC convertidos\02 Soloists, Glyndebourne Festival Orchestra & Chorus, V Gui , Act 1 - No, no, no, non v'e.wav
Pre-gap length 0:00:00.24
Peak level 69.6 %
Extraction speed 22.5 X
Track quality 100.0 %
Test CRC CBF5EAB7
Copy CRC CBF5EAB7
Copy OK
Track 3
Filename f:\Users\Guillermo\Desktop\EAC convertidos\03 Soloists, Glyndebourne Festival Orchestra & Chorus, V Gui , Un tantin di carita.wav
Pre-gap length 0:04:25.17
Peak level 66.7 %
Extraction speed 23.3 X
Track quality 100.0 %
Test CRC 3E9CDCFD
Copy CRC 3E9CDCFD
Copy OK
Track 4
Filename f:\Users\Guillermo\Desktop\EAC convertidos\04 Soloists, Glyndebourne Festival Orchestra & Chorus, V Gui , O figlie amabil di Don Magnifico.wav
Pre-gap length 0:06:10.04
Peak level 87.6 %
Extraction speed 18.6 X
Track quality 99.8 %
Test CRC 3050FA38
Copy CRC 3050FA38
Copy OK
Track 5
Filename f:\Users\Guillermo\Desktop\EAC convertidos\05 Soloists, Glyndebourne Festival Orchestra & Chorus, V Gui , Date for mezzo scudo.wav
Pre-gap length 0:08:49.04
Peak level 52.1 %
Extraction speed 23.2 X
Track quality 100.0 %
Test CRC FD180C08
Copy CRC FD180C08
Copy OK
Track 6
Filename f:\Users\Guillermo\Desktop\EAC convertidos\06 Soloists, Glyndebourne Festival Orchestra & Chorus, V Gui , Miel rampoli, miei rampoli.wav
Pre-gap length 0:09:22.90
Peak level 85.9 %
Extraction speed 26.3 X
Track quality 100.0 %
Test CRC 6BDF3220
Copy CRC 6BDF3220
Copy OK
Track 7
Filename f:\Users\Guillermo\Desktop\EAC convertidos\07 Soloists, Glyndebourne Festival Orchestra & Chorus, V Gui , Sappite che fra poco.wav
Pre-gap length 0:14:08.50
Peak level 75.2 %
Extraction speed 7.2 X
Track quality 100.0 %
Test CRC A90023C7
Copy CRC A90023C7
Copy OK
Track 8
Filename f:\Users\Guillermo\Desktop\EAC convertidos\08 Soloists, Glyndebourne Festival Orchestra & Chorus, V Gui , Tutto e deserto.wav
Pre-gap length 0:14:46.60
Peak level 74.1 %
Extraction speed 16.9 X
Track quality 100.0 %
Test CRC 5ECE9836
Copy CRC 5ECE9836
Copy OK
Track 9
Filename f:\Users\Guillermo\Desktop\EAC convertidos\09 Soloists, Glyndebourne Festival Orchestra & Chorus, V Gui , Un soave non so che.wav
Pre-gap length 0:17:57.90
Peak level 84.9 %
Extraction speed 15.7 X
Track quality 100.0 %
Test CRC A83AC1F3
Copy CRC A83AC1F3
Copy OK
Track 10
Filename f:\Users\Guillermo\Desktop\EAC convertidos\10 Soloists, Glyndebourne Festival Orchestra & Chorus, V Gui , Del barone le figlie io chiedo.wav
Pre-gap length 0:21:34.57
Peak level 89.5 %
Extraction speed 18.2 X
Track quality 100.0 %
Test CRC A0A3C77A
Copy CRC A0A3C77A
Copy OK
Track 11
Filename f:\Users\Guillermo\Desktop\EAC convertidos\11 Soloists, Glyndebourne Festival Orchestra & Chorus, V Gui , Non so che dir.wav
Pre-gap length 0:24:40.73
Peak level 68.8 %
Extraction speed 6.8 X
Track quality 98.8 %
Test CRC 9962CA32
Copy CRC 9962CA32
Copy OK
Track 12
Filename f:\Users\Guillermo\Desktop\EAC convertidos\12 Soloists, Glyndebourne Festival Orchestra & Chorus, V Gui , Scegli la sposa, affrettati.wav
Pre-gap length 0:24:59.24
Peak level 91.0 %
Extraction speed 18.0 X
Track quality 99.9 %
Test CRC 61D9F17F
Copy CRC 61D9F17F
Copy OK
Track 13
Filename f:\Users\Guillermo\Desktop\EAC convertidos\13 Soloists, Glyndebourne Festival Orchestra & Chorus, V Gui , Allegressimamente, che bel quadri.wav
Pre-gap length 0:31:44.60
Peak level 69.8 %
Extraction speed 15.3 X
Track quality 100.0 %
Test CRC 3D0B7BC5
Copy CRC 3D0B7BC5
Copy OK
Track 14
Filename f:\Users\Guillermo\Desktop\EAC convertidos\14 Soloists, Glyndebourne Festival Orchestra & Chorus, V Gui , Signor...una parola.wav
Pre-gap length 0:33:21.30
Peak level 86.8 %
Extraction speed 18.3 X
Track quality 100.0 %
Test CRC 5F7FDE2D
Copy CRC 5F7FDE2D
Copy OK
Track 15
Filename f:\Users\Guillermo\Desktop\EAC convertidos\15 Soloists, Glyndebourne Festival Orchestra & Chorus, V Gui , Qui nel mio codice delle zitelle.wav
Pre-gap length 0:37:22.37
Peak level 76.5 %
Extraction speed 20.7 X
Track quality 100.0 %
Test CRC 2CF41332
Copy CRC 2CF41332
Copy OK
Track 16
Filename f:\Users\Guillermo\Desktop\EAC convertidos\16 Soloists, Glyndebourne Festival Orchestra & Chorus, V Gui , Nel volto estatico di questo e quello.wav
Pre-gap length 0:39:33.77
Peak level 86.0 %
Extraction speed 19.8 X
Track quality 100.0 %
Test CRC A0692608
Copy CRC A0692608
Copy OK
Track 17
Filename f:\Users\Guillermo\Desktop\EAC convertidos\17 Soloists, Glyndebourne Festival Orchestra & Chorus, V Gui , Figlia...Figlia voi mi chiamate.wav
Pre-gap length 0:44:34.17
Peak level 27.4 %
Extraction speed 18.1 X
Track quality 100.0 %
Test CRC 5952399D
Copy CRC 5952399D
Copy OK
Track 18
Filename f:\Users\Guillermo\Desktop\EAC convertidos\18 Soloists, Glyndebourne Festival Orchestra & Chorus, V Gui , Ma bravo, bravo, bravo.wav
Pre-gap length 0:46:55.80
Peak level 73.4 %
Extraction speed 17.2 X
Track quality 100.0 %
Test CRC 8FFE58CC
Copy CRC 8FFE58CC
Copy OK
Track 19
Filename f:\Users\Guillermo\Desktop\EAC convertidos\19 Soloists, Glyndebourne Festival Orchestra & Chorus, V Gui , Conciosiacosacche trenta botti gia gusto.wav
Pre-gap length 0:48:42.73
Peak level 88.1 %
Extraction speed 19.6 X
Track quality 100.0 %
Test CRC 29CD4AC8
Copy CRC 29CD4AC8
Copy OK
Track 20
Filename f:\Users\Guillermo\Desktop\EAC convertidos\20 Soloists, Glyndebourne Festival Orchestra & Chorus, V Gui , Noi Don Magnifico.wav
Pre-gap length 0:51:48.44
Peak level 93.3 %
Extraction speed 23.2 X
Track quality 100.0 %
Test CRC B7EF4A23
Copy CRC B7EF4A23
Copy OK
No errors occurred
End of status report
==== Log checksum CD5E5EB55A7BC169CCC5E08A6AA4D8477DA5883205B50CFCA8E403A8CC4DD53E ====

Лог создания рипа CD 2

Exact Audio Copy V1.0 beta 3 from 29. August 2011
EAC extraction logfile from 21. March 2015, 14:21
Rossini, G / La Cenerentola [CD 2]
Used drive : HL-DT-STDVDRAM GH22NS50 Adapter: 3 ID: 0
Read mode : Secure
Utilize accurate stream : Yes
Defeat audio cache : No
Make use of C2 pointers : Yes
Read offset correction : 667
Overread into Lead-In and Lead-Out : No
Fill up missing offset samples with silence : Yes
Delete leading and trailing silent blocks : Yes
Null samples used in CRC calculations : Yes
Used interface : Native Win32 interface for Win NT & 2000
Gap handling : Appended to previous track
Used output format : User Defined Encoder
Selected bitrate : 768 kBit/s
Quality : High
Add ID3 tag : No
Command line compressor : C:\Program Files (x86)\Exact Audio Copy\FLAC\FLAC.EXE
Additional command line options : -8 -V -T "ARTIST=%artist%" -T "TITLE=%title%" -T "ALBUM=%albumtitle%" -T "DATE=%year%" -T "TRACKNUMBER=%tracknr%" -T "GENRE=%genre%" -T "PERFORMER=%albuminterpret%" -T "COMPOSER=%composer%" %haslyrics%--tag-from-file=LYRICS="%lyricsfile%"%haslyrics% -T "ALBUMARTIST=%albumartist%" -T "DISCNUMBER=%cdnumber%" -T "TOTALDISCS=%totalcds%" -T "TOTALTRACKS=%numtracks%" -T "COMMENT=%comment%" %source% -o %dest%
TOC of the extracted CD
Track | Start | Length | Start sector | End sector
---------------------------------------------------------
1 | 0:00.33 | 2:35.72 | 33 | 11729
2 | 2:36.30 | 1:58.30 | 11730 | 20609
3 | 4:34.60 | 2:02.18 | 20610 | 29777
4 | 6:37.03 | 1:00.07 | 29778 | 34284
5 | 7:37.10 | 3:55.45 | 34285 | 51954
6 | 11:32.55 | 2:47.15 | 51955 | 64494
7 | 14:19.70 | 4:31.28 | 64495 | 84847
8 | 18:51.23 | 1:38.45 | 84848 | 92242
9 | 20:29.68 | 1:04.22 | 92243 | 97064
10 | 21:34.15 | 2:52.10 | 97065 | 109974
11 | 24:26.25 | 1:32.03 | 109975 | 116877
12 | 25:58.28 | 5:15.60 | 116878 | 140562
13 | 31:14.13 | 1:33.47 | 140563 | 147584
14 | 32:47.60 | 1:14.08 | 147585 | 153142
15 | 34:01.68 | 2:11.00 | 153143 | 162967
16 | 36:12.68 | 0:56.70 | 162968 | 167237
17 | 37:09.63 | 4:25.05 | 167238 | 187117
18 | 41:34.68 | 2:51.10 | 187118 | 199952
19 | 44:26.03 | 3:33.60 | 199953 | 215987
20 | 47:59.63 | 3:33.55 | 215988 | 232017
21 | 51:33.43 | 2:50.22 | 232018 | 244789
Track 1
Filename f:\Users\Guillermo\Desktop\EAC convertidos\01 Soloists, Glyndebourne Festival Orchestra & Chorus, V Gui , Zitto, zitto, piano, piano.wav
Pre-gap length 0:00:02.44
Peak level 97.7 %
Extraction speed 18.0 X
Track quality 100.0 %
Test CRC 4186B017
Copy CRC 4186B017
Copy OK
Track 2
Filename f:\Users\Guillermo\Desktop\EAC convertidos\02 Soloists, Glyndebourne Festival Orchestra & Chorus, V Gui , Pricipino dove siete.wav
Pre-gap length 0:00:00.02
Peak level 95.9 %
Extraction speed 15.5 X
Track quality 100.0 %
Test CRC 807F350B
Copy CRC 807F350B
Copy OK
Track 3
Filename f:\Users\Guillermo\Desktop\EAC convertidos\03 Soloists, Glyndebourne Festival Orchestra & Chorus, V Gui , Venga inoltri.wav
Pre-gap length 0:00:00.02
Peak level 88.8 %
Extraction speed 16.4 X
Track quality 100.0 %
Test CRC D940C963
Copy CRC D940C963
Copy OK
Track 4
Filename f:\Users\Guillermo\Desktop\EAC convertidos\04 Soloists, Glyndebourne Festival Orchestra & Chorus, V Gui , Ah se velata ancor.wav
Pre-gap length 0:00:00.04
Peak level 87.2 %
Extraction speed 6.7 X
Track quality 100.0 %
Test CRC 4DC246B1
Copy CRC 4DC246B1
Copy OK
Track 5
Filename f:\Users\Guillermo\Desktop\EAC convertidos\05 Soloists, Glyndebourne Festival Orchestra & Chorus, V Gui , Sprezzo quei don che versa.wav
Pre-gap length 0:00:00.02
Peak level 69.4 %
Extraction speed 13.6 X
Track quality 100.0 %
Test CRC AB957434
Copy CRC AB957434
Copy OK
Track 6
Filename f:\Users\Guillermo\Desktop\EAC convertidos\06 Soloists, Glyndebourne Festival Orchestra & Chorus, V Gui , Pariar pensar vorrei.wav
Pre-gap length 0:00:00.02
Peak level 61.5 %
Extraction speed 12.6 X
Track quality 100.0 %
Test CRC 389FC51D
Copy CRC 389FC51D
Copy OK
Track 7
Filename f:\Users\Guillermo\Desktop\EAC convertidos\07 Soloists, Glyndebourne Festival Orchestra & Chorus, V Gui , Signor..Altezza in tavola.wav
Pre-gap length 0:00:00.02
Peak level 62.3 %
Extraction speed 13.9 X
Track quality 100.0 %
Test CRC 2E578FB6
Copy CRC 2E578FB6
Copy OK
Track 8
Filename f:\Users\Guillermo\Desktop\EAC convertidos\08 Soloists, Glyndebourne Festival Orchestra & Chorus, V Gui , Act 2 - Ma non fuggirr per bacco.wav
Pre-gap length 0:00:05.84
Peak level 41.8 %
Extraction speed 15.9 X
Track quality 100.0 %
Test CRC 9542F405
Copy CRC 9542F405
Copy OK
Track 9
Filename f:\Users\Guillermo\Desktop\EAC convertidos\09 Soloists, Glyndebourne Festival Orchestra & Chorus, V Gui , E allor..se non ti spiaccio.wav
Pre-gap length 0:00:00.04
Peak level 44.6 %
Extraction speed 11.4 X
Track quality 100.0 %
Test CRC D50BCB66
Copy CRC D50BCB66
Copy OK
Track 10
Filename f:\Users\Guillermo\Desktop\EAC convertidos\10 Soloists, Glyndebourne Festival Orchestra & Chorus, V Gui , Pegino adorato e caro.wav
Pre-gap length 0:00:00.02
Peak level 55.6 %
Extraction speed 16.8 X
Track quality 100.0 %
Test CRC B3579A47
Copy CRC B3579A47
Copy OK
Track 11
Filename f:\Users\Guillermo\Desktop\EAC convertidos\11 Soloists, Glyndebourne Festival Orchestra & Chorus, V Gui , Ma dunque io sono un ex.wav
Pre-gap length 0:00:00.02
Peak level 49.9 %
Extraction speed 13.0 X
Track quality 100.0 %
Test CRC AB75178F
Copy CRC AB75178F
Copy OK
Track 12
Filename f:\Users\Guillermo\Desktop\EAC convertidos\12 Soloists, Glyndebourne Festival Orchestra & Chorus, V Gui , Un segreto d'importanza.wav
Pre-gap length 0:00:00.04
Peak level 61.1 %
Extraction speed 16.6 X
Track quality 99.9 %
Test CRC A32CEE96
Copy CRC A32CEE96
Copy OK
Track 13
Filename f:\Users\Guillermo\Desktop\EAC convertidos\13 Soloists, Glyndebourne Festival Orchestra & Chorus, V Gui , Una volta c'era un re.wav
Pre-gap length 0:00:00.04
Peak level 18.7 %
Extraction speed 14.0 X
Track quality 100.0 %
Test CRC 1AE70492
Copy CRC 1AE70492
Copy OK
Track 14
Filename f:\Users\Guillermo\Desktop\EAC convertidos\14 Soloists, Glyndebourne Festival Orchestra & Chorus, V Gui , Quanto sei caro.wav
Pre-gap length 0:00:00.02
Peak level 92.2 %
Extraction speed 13.5 X
Track quality 100.0 %
Test CRC C4B48A65
Copy CRC C4B48A65
Copy OK
Track 15
Filename f:\Users\Guillermo\Desktop\EAC convertidos\15 Soloists, Glyndebourne Festival Orchestra & Chorus, V Gui , Storm music.wav
Pre-gap length 0:00:00.04
Peak level 92.2 %
Extraction speed 19.2 X
Track quality 100.0 %
Test CRC 47F8937B
Copy CRC 47F8937B
Copy OK
Track 16
Filename f:\Users\Guillermo\Desktop\EAC convertidos\16 Soloists, Glyndebourne Festival Orchestra & Chorus, V Gui , Scusate amico.wav
Pre-gap length 0:00:00.04
Peak level 56.9 %
Extraction speed 12.8 X
Track quality 100.0 %
Test CRC DD304C81
Copy CRC DD304C81
Copy OK
Track 17
Filename f:\Users\Guillermo\Desktop\EAC convertidos\17 Soloists, Glyndebourne Festival Orchestra & Chorus, V Gui , Siete voi.wav
Pre-gap length 0:00:00.04
Peak level 56.7 %
Extraction speed 18.4 X
Track quality 100.0 %
Test CRC 70661B42
Copy CRC 70661B42
Copy OK
Track 18
Filename f:\Users\Guillermo\Desktop\EAC convertidos\18 Soloists, Glyndebourne Festival Orchestra & Chorus, V Gui , Ma insomma delle somme.wav
Pre-gap length 0:00:00.04
Peak level 60.4 %
Extraction speed 17.8 X
Track quality 99.8 %
Test CRC BFE953AE
Copy CRC BFE953AE
Copy OK
Track 19
Filename f:\Users\Guillermo\Desktop\EAC convertidos\19 Soloists, Glyndebourne Festival Orchestra & Chorus, V Gui , Della Fortuna instabile.wav
Pre-gap length 0:00:00.04
Peak level 60.8 %
Extraction speed 18.9 X
Track quality 99.9 %
Test CRC E52A69CE
Copy CRC E52A69CE
Copy OK
Track 20
Filename f:\Users\Guillermo\Desktop\EAC convertidos\20 Soloists, Glyndebourne Festival Orchestra & Chorus, V Gui , Nacqui all'affanno e al pianto.wav
Pre-gap length 0:00:00.04
Peak level 53.9 %
Extraction speed 19.3 X
Track quality 100.0 %
Test CRC 22144845
Copy CRC 22144845
Copy OK
Track 21
Filename f:\Users\Guillermo\Desktop\EAC convertidos\21 Soloists, Glyndebourne Festival Orchestra & Chorus, V Gui , Non piu mesta accanto al fuoco.wav
Pre-gap length 0:00:00.04
Peak level 70.6 %
Extraction speed 22.5 X
Track quality 100.0 %
Test CRC 98288630
Copy CRC 98288630
Copy OK
No errors occurred
End of status report
==== Log checksum 14C5246693029EEC982CE2126102D6B6565A2352AA5715B32999C8C9060E0F59 ====



Показать сообщения:    

Текущее время: 08-Дек 19:06

Часовой пояс: UTC + 3


Вы не можете начинать темы
Вы не можете отвечать на сообщения
Вы не можете редактировать свои сообщения
Вы не можете удалять свои сообщения
Вы не можете голосовать в опросах
Вы не можете прикреплять файлы к сообщениям
Вы не можете скачивать файлы