(Opera) Wagner - Der Ring des Nibelungen (Dohmen, Lukas, Bieber, Shore, Wottrich, Youn, Gould, Watson, Siegel, Mayer, Bayreuther Festspiele Orchestra & Chorus, Christian Thielemann) - 2009, FLAC (image+.cue), lossless


 

[Цитировать]

Wagner - Der Ring des Nibelungen - Thielemann
Жанр: Opera
Страна-производитель диска: England
Год издания диска: 2009
Издатель (лейбл): Opus Arte
Номер по каталогу: OA CD9001-9004
Дата записи: 2008 live
Аудиокодек: FLAC
Тип рипа: image+.cue
Битрейт аудио: lossless
Продолжительность: 151:17 + 225:33 + 244:37 + 275:26
Источник: собственный рип
Наличие сканов в содержимом раздачи: да
Das Rheingold:

CD1:Треклист:

Akt I
01. Vorspiel
Szene 1
02. Weia! Waga! Woge, du Welle
03. Garstig glatter glitschiger Glimmer!
04. Wallala! Lalaleia! Schame dich, Albe!
05. Lugt, Schwestern! Die Weckerin lacht in den Grund
06. Der Wel Erbe gewann' ich zu eigen durch dich?
07. Verwandlungsmusik
Szene 2
08. Wotan, Gemahl, erwache!
09. Nur Wonne schafft dir, was mich erschreckt?
10. Hilf mir, Schwester!
11. Sanft schlos Schlaf dein Aug'
12. Was sagst du? Ha! Sinnst du Verrat?
13. Zu mir, Freia! Meide sie, Frecher!
14. Endlich Loge! Eiltest du so
15. Immer ist Undank Loges Lohn
16. Nur einen sah ich, der sagte der Liebe ab
17. Taugte wohl des goldnen Tandes das gleissende Geschmeid
18. Glaub mir, mehr als Freia frommt das gleisende Gold
19. Was sinnt nun Wotan so wild?
20. Jetzt fans ich's, hort was euch fehlt!
21. Wotan, Gemahl, unsel'ger Mann!
22. Verwandslungsmusik
Szene 3
23. Hehe! Hieher! Tuckischer Zwerg
24. Schau, du Schelm! Alles geschmiedet
25. Nibelheim hier: durch bleiche Nebel
Total 76.14

Лог создания рипа:

Exact Audio Copy V1.0 beta 3 from 29. August 2011
Отчёт EAC об извлечении, выполненном 25. февраля 2015, 10:37
Richard Wagner / Das Rheingold - CD1
Дисковод: Optiarc DVD RW AD-7260S Adapter: 0 ID: 1
Режим чтения : Достоверность
Использование точного потока : Да
Отключение кэша аудио : Да
Использование указателей C2 : Нет
Коррекция смещения при чтении : 48
Способность читать области Lead-in и Lead-out : Нет
Заполнение пропущенных сэмплов тишиной : Да
Удаление блоков с тишиной в начале и конце : Нет
При вычислениях CRC использовались нулевые сэмплы : Да
Интерфейс : Встроенный Win32-интерфейс для Win NT/2000
Выходной формат : Пользовательский кодировщик
Выбранный битрейт : 896 kBit/s
Качество : Высокий
Добавление ID3-тега : Нет
Утилита сжатия : C:\Program Files\FLAC Frontend\tools\flac.exe
Дополнительные параметры : -V -8 -T "Date=%year%" -T "Genre=%genre%" %source%
TOC извлечённого CD
Трек | Старт | Длительность | Начальный сектор | Конечный сектор
---------------------------------------------------------------------
1 | 0:00.00 | 4:45.35 | 0 | 21409
2 | 4:45.35 | 2:36.04 | 21410 | 33113
3 | 7:21.39 | 5:38.09 | 33114 | 58472
4 | 12:59.48 | 2:42.43 | 58473 | 70665
5 | 15:42.16 | 6:45.04 | 70666 | 101044
6 | 22:27.20 | 1:59.12 | 101045 | 109981
7 | 24:26.32 | 3:02.39 | 109982 | 123670
8 | 27:28.71 | 3:23.57 | 123671 | 138952
9 | 30:52.53 | 4:24.12 | 138953 | 158764
10 | 35:16.65 | 1:41.14 | 158765 | 166353
11 | 36:58.04 | 2:17.46 | 166354 | 176674
12 | 39:15.50 | 4:57.69 | 176675 | 199018
13 | 44:13.44 | 1:30.20 | 199019 | 205788
14 | 45:43.64 | 3:50.69 | 205789 | 223107
15 | 49:34.58 | 2:25.52 | 223108 | 234034
16 | 52:00.35 | 3:31.43 | 234035 | 249902
17 | 55:32.03 | 3:59.16 | 249903 | 267843
18 | 59:31.19 | 3:31.53 | 267844 | 283721
19 | 63:02.72 | 2:01.28 | 283722 | 292824
20 | 65:04.25 | 2:08.37 | 292825 | 302461
21 | 67:12.62 | 1:45.15 | 302462 | 310351
22 | 68:58.02 | 2:59.56 | 310352 | 323832
23 | 71:57.58 | 0:39.24 | 323833 | 326781
24 | 72:37.07 | 2:53.42 | 326782 | 339798
25 | 75:30.49 | 0:43.01 | 339799 | 343024
Характеристики диапазона извлечения и сообщения об ошибках
Выбранный диапазон
Имя файла N:\Wagner - Der Ring des Nibelungen - Thielemann\CD1\Richard Wagner - Das Rheingold - CD1.wav
Пиковый уровень 95.9 %
Скорость извлечения 4.5 X
Качество диапазона 99.9 %
CRC теста 0DB72037
CRC копии 0DB72037
Копирование... OK
Ошибок не произошло
AccurateRip: сводка
Трек 1 : извлечено точно (доверие 11) [DEF06FBB] (AR v2)
Трек 2 : извлечено точно (доверие 11) [977A13EC] (AR v2)
Трек 3 : извлечено точно (доверие 11) [B2EA3210] (AR v2)
Трек 4 : извлечено точно (доверие 11) [27A45C6C] (AR v2)
Трек 5 : извлечено точно (доверие 11) [1F69AFE0] (AR v2)
Трек 6 : извлечено точно (доверие 11) [998ADFF7] (AR v2)
Трек 7 : извлечено точно (доверие 11) [B059C0F1] (AR v2)
Трек 8 : извлечено точно (доверие 11) [2C6A8C9C] (AR v2)
Трек 9 : извлечено точно (доверие 11) [95C0AEC1] (AR v2)
Трек 10 : извлечено точно (доверие 11) [C4DEDB18] (AR v2)
Трек 11 : извлечено точно (доверие 11) [F9479096] (AR v2)
Трек 12 : извлечено точно (доверие 11) [38EF9D2F] (AR v2)
Трек 13 : извлечено точно (доверие 11) [BDFDA1DB] (AR v2)
Трек 14 : извлечено точно (доверие 11) [76B08296] (AR v2)
Трек 15 : извлечено точно (доверие 11) [6C5CC080] (AR v2)
Трек 16 : извлечено точно (доверие 11) [866FDE06] (AR v2)
Трек 17 : извлечено точно (доверие 11) [CD9059D2] (AR v2)
Трек 18 : извлечено точно (доверие 11) [D900EE7D] (AR v2)
Трек 19 : извлечено точно (доверие 11) [EF4293BA] (AR v2)
Трек 20 : извлечено точно (доверие 11) [DC35EBC9] (AR v2)
Трек 21 : извлечено точно (доверие 11) [31685B11] (AR v2)
Трек 22 : извлечено точно (доверие 11) [4C23ABD2] (AR v2)
Трек 23 : извлечено точно (доверие 11) [7C110B7A] (AR v2)
Трек 24 : извлечено точно (доверие 10) [215BFE66] (AR v2)
Трек 25 : извлечено точно (доверие 9) [1840294A] (AR v2)
Все треки извлечены точно
Конец отчёта
==== Контрольная сумма отчёта CA9B4855A8D8ADA8FF0A14C1EA3C8DD2BF962F29AD2C61245320E669591ED3C9 ====

CD2:Треклист:

Szene 3 (cont.)
01. Wer halfe mir?
02. Nehmt euch in acht!
03. Was wollt ihr hier?
04. Auf wonnigen Hol'n, in seligem Weben wiegt ihr euch
05. Riesen-Wurm winde sich ringelnd!
06. Luge du her!
Szene 4
07. Da, Vetter, sitze du fest!
08. Wohlan, die Nibelungen rief ich mir nah
09. Gezahlt hab' ich; nun last mich ziehn
10. Bin ich nun frei?
11. Fasolt und Fafner nahen von fern
12. Gepflanzt sind die Pfahle nach nicht mehr
13. Freia, die Schone, schau' ich nicht mehr
14. Weiche, Wotan! Weiche!
15. Hort, ihr Riesen!
16. Halt, du Gieriger!
17. Schwules Gedunst schwebt in der Luft
18. Zur Burg fuhrt die Brucke
19. Rheingold! Rheingold!
Total 75.05

Лог создания рипа:

Exact Audio Copy V1.0 beta 3 from 29. August 2011
Отчёт EAC об извлечении, выполненном 25. февраля 2015, 11:35
Richard Wagner / Das Rheingold - CD2
Дисковод: Optiarc DVD RW AD-7260S Adapter: 0 ID: 1
Режим чтения : Достоверность
Использование точного потока : Да
Отключение кэша аудио : Да
Использование указателей C2 : Нет
Коррекция смещения при чтении : 48
Способность читать области Lead-in и Lead-out : Нет
Заполнение пропущенных сэмплов тишиной : Да
Удаление блоков с тишиной в начале и конце : Нет
При вычислениях CRC использовались нулевые сэмплы : Да
Интерфейс : Встроенный Win32-интерфейс для Win NT/2000
Выходной формат : Пользовательский кодировщик
Выбранный битрейт : 896 kBit/s
Качество : Высокий
Добавление ID3-тега : Нет
Утилита сжатия : C:\Program Files\FLAC Frontend\tools\flac.exe
Дополнительные параметры : -V -8 -T "Date=%year%" -T "Genre=%genre%" %source%
TOC извлечённого CD
Трек | Старт | Длительность | Начальный сектор | Конечный сектор
---------------------------------------------------------------------
1 | 0:00.00 | 4:15.73 | 0 | 19197
2 | 4:15.73 | 2:41.04 | 19198 | 31276
3 | 6:57.02 | 4:17.46 | 31277 | 50597
4 | 11:14.48 | 5:47.15 | 50598 | 76637
5 | 17:01.63 | 2:39.44 | 76638 | 88606
6 | 19:41.32 | 4:57.08 | 88607 | 110889
7 | 24:38.40 | 2:33.72 | 110890 | 122436
8 | 27:12.37 | 2:27.50 | 122437 | 133511
9 | 29:40.12 | 6:04.03 | 133512 | 160814
10 | 35:44.15 | 4:14.02 | 160815 | 179866
11 | 39:58.17 | 4:52.67 | 179867 | 201833
12 | 44:51.09 | 3:04.29 | 201834 | 215662
13 | 47:55.38 | 2:37.39 | 215663 | 227476
14 | 50:33.02 | 4:59.05 | 227477 | 249906
15 | 55:32.07 | 1:48.50 | 249907 | 258056
16 | 57:20.57 | 4:28.01 | 258057 | 278157
17 | 61:48.58 | 2:33.15 | 278158 | 289647
18 | 64:21.73 | 5:36.46 | 289648 | 314893
19 | 69:58.44 | 5:06.24 | 314894 | 337867
Характеристики диапазона извлечения и сообщения об ошибках
Выбранный диапазон
Имя файла N:\Wagner - Der Ring des Nibelungen - Thielemann\CD2\Richard Wagner - Das Rheingold - CD2.wav
Пиковый уровень 96.1 %
Скорость извлечения 4.5 X
Качество диапазона 99.9 %
CRC теста E4797540
CRC копии E4797540
Копирование... OK
Ошибок не произошло
AccurateRip: сводка
Трек 1 : извлечено точно (доверие 11) [32CBE551] (AR v2)
Трек 2 : извлечено точно (доверие 11) [8BDDE027] (AR v2)
Трек 3 : извлечено точно (доверие 11) [E3982A23] (AR v2)
Трек 4 : извлечено точно (доверие 11) [E5BE5C8B] (AR v2)
Трек 5 : извлечено точно (доверие 11) [886481B7] (AR v2)
Трек 6 : извлечено точно (доверие 11) [04BF19E0] (AR v2)
Трек 7 : извлечено точно (доверие 11) [3FB38562] (AR v2)
Трек 8 : извлечено точно (доверие 11) [54AE1CF5] (AR v2)
Трек 9 : извлечено точно (доверие 11) [BCBB6B9B] (AR v2)
Трек 10 : извлечено точно (доверие 11) [A26FD311] (AR v2)
Трек 11 : извлечено точно (доверие 11) [C786F285] (AR v2)
Трек 12 : извлечено точно (доверие 11) [BDF04AC5] (AR v2)
Трек 13 : извлечено точно (доверие 11) [3EE07700] (AR v2)
Трек 14 : извлечено точно (доверие 11) [6A8CBC02] (AR v2)
Трек 15 : извлечено точно (доверие 11) [A73346E7] (AR v2)
Трек 16 : извлечено точно (доверие 11) [B17CEB9F] (AR v2)
Трек 17 : извлечено точно (доверие 11) [7F328391] (AR v2)
Трек 18 : извлечено точно (доверие 11) [CF0E1763] (AR v2)
Трек 19 : извлечено точно (доверие 10) [CD8AE1C0] (AR v2)
Все треки извлечены точно
Конец отчёта
==== Контрольная сумма отчёта 5D0A5DC8544DA5629FE827D953459230C261D45080DE5929BD32ED12B80EBF1D ====

Исполнители:

Albert Dohmen (Wotan)
Ralf Lukas (Donner)
Clemens Bieber (Froh)
Arnold Bezuyen (Loge)
Andrew Shore (Alberich)
Gerhard Siegel (Mime)
Kwangchul Youn (Fasolt)
Hans-Peter König (Fafner)
Michelle Breedt (Fricka)
Edith Haller (Freia)
Christa Mayer (Erda)
Fionnuala McCarthy (Woglinde)
Ulrike Helzel (Wellgunde)
Simone Schröder (Floßhilde)
Bayreuther Festspiele Orchestra
Christian Thielemann
Die Walküre:

CD1:Треклист:

Akt I
01. Vorspiel
Szene 1
02. Wes Herd dies auch sei, hier mus ich rasten
03. Kuhlende Labung gab mir der Quell
04. Des Seimigen Metes susen Trank
05. Einen Unseligen labtest du
Szene 2
06. Mud' am Herd fand ich den Mann
07. Friedmund darf ich nicht heisen
08. Wunder und wilde Mare kundest du, kuhner Gast
09. Aus dem Wald trieb es mich fort
10. Die so leidig Los dir beschied
11. Ich weis ein wildes Geschlecht
12. Fort aus dem Saal!
Szene 3
13. Ein Schwert verhiess mir der Vater
14. Walse! Wo ist dein Schwert?
15. Schlafst du gast
16. Wintersturme wichen dem Wonnemond
17. Du bist der Lenz, nach dem ich verlangte
18. O suseste Wonne! Seligstes Weib!
19. Wehwalt heist du furwahr?
20. Siegmund heis' ich, und Siegmund bin ich
Total 63.24

Лог создания рипа:

Exact Audio Copy V1.0 beta 3 from 29. August 2011
Отчёт EAC об извлечении, выполненном 25. февраля 2015, 13:05
Richard Wagner / Die Walkure - CD1
Дисковод: Optiarc DVD RW AD-7260S Adapter: 0 ID: 1
Режим чтения : Достоверность
Использование точного потока : Да
Отключение кэша аудио : Да
Использование указателей C2 : Нет
Коррекция смещения при чтении : 48
Способность читать области Lead-in и Lead-out : Нет
Заполнение пропущенных сэмплов тишиной : Да
Удаление блоков с тишиной в начале и конце : Нет
При вычислениях CRC использовались нулевые сэмплы : Да
Интерфейс : Встроенный Win32-интерфейс для Win NT/2000
Выходной формат : Пользовательский кодировщик
Выбранный битрейт : 896 kBit/s
Качество : Высокий
Добавление ID3-тега : Нет
Утилита сжатия : C:\Program Files\FLAC Frontend\tools\flac.exe
Дополнительные параметры : -V -8 -T "Date=%year%" -T "Genre=%genre%" %source%
TOC извлечённого CD
Трек | Старт | Длительность | Начальный сектор | Конечный сектор
---------------------------------------------------------------------
1 | 0:00.00 | 3:16.52 | 0 | 14751
2 | 3:16.52 | 3:30.32 | 14752 | 30533
3 | 6:47.09 | 3:06.64 | 30534 | 44547
4 | 9:53.73 | 2:08.54 | 44548 | 54201
5 | 12:02.52 | 3:18.06 | 54202 | 69057
6 | 15:20.58 | 4:45.55 | 69058 | 90487
7 | 20:06.38 | 2:33.02 | 90488 | 101964
8 | 22:39.40 | 1:18.31 | 101965 | 107845
9 | 23:57.71 | 1:55.21 | 107846 | 116491
10 | 25:53.17 | 3:53.31 | 116492 | 133997
11 | 29:46.48 | 1:38.04 | 133998 | 141351
12 | 31:24.52 | 3:51.67 | 141352 | 158743
13 | 35:16.44 | 2:16.44 | 158744 | 168987
14 | 37:33.13 | 3:33.50 | 168988 | 185012
15 | 41:06.63 | 6:39.56 | 185013 | 214993
16 | 47:46.44 | 3:11.71 | 214994 | 229389
17 | 50:58.40 | 1:56.37 | 229390 | 238126
18 | 52:55.02 | 4:44.33 | 238127 | 259459
19 | 57:39.35 | 1:17.03 | 259460 | 265237
20 | 58:56.38 | 4:27.46 | 265238 | 285308
Характеристики диапазона извлечения и сообщения об ошибках
Выбранный диапазон
Имя файла N:\Wagner - Der Ring des Nibelungen - Thielemann\Die Walkure\CD1\Richard Wagner - Die Walkure - CD1.wav
Пиковый уровень 96.0 %
Скорость извлечения 4.0 X
Качество диапазона 100.0 %
CRC теста B490BFAA
CRC копии B490BFAA
Копирование... OK
Ошибок не произошло
AccurateRip: сводка
Трек 1 : извлечено точно (доверие 9) [85F72A93] (AR v2)
Трек 2 : извлечено точно (доверие 9) [232E1329] (AR v2)
Трек 3 : извлечено точно (доверие 9) [25469482] (AR v2)
Трек 4 : извлечено точно (доверие 9) [C01B3334] (AR v2)
Трек 5 : извлечено точно (доверие 9) [BB662E28] (AR v2)
Трек 6 : извлечено точно (доверие 9) [645E06D6] (AR v2)
Трек 7 : извлечено точно (доверие 9) [3B9C5361] (AR v2)
Трек 8 : извлечено точно (доверие 9) [BDD2BF40] (AR v2)
Трек 9 : извлечено точно (доверие 9) [AB45A27C] (AR v2)
Трек 10 : извлечено точно (доверие 9) [F46A323A] (AR v2)
Трек 11 : извлечено точно (доверие 9) [1788BECA] (AR v2)
Трек 12 : извлечено точно (доверие 9) [57E973B0] (AR v2)
Трек 13 : извлечено точно (доверие 9) [A4EE4244] (AR v2)
Трек 14 : извлечено точно (доверие 9) [AF4834C9] (AR v2)
Трек 15 : извлечено точно (доверие 9) [F053E771] (AR v2)
Трек 16 : извлечено точно (доверие 9) [C005774D] (AR v2)
Трек 17 : извлечено точно (доверие 9) [C284CC84] (AR v2)
Трек 18 : извлечено точно (доверие 9) [F0046E38] (AR v2)
Трек 19 : извлечено точно (доверие 9) [C9549E98] (AR v2)
Трек 20 : извлечено точно (доверие 9) [5AAAB0D1] (AR v2)
Все треки извлечены точно
Конец отчёта
==== Контрольная сумма отчёта 70D9FE0C5A13DBE5C864C2B798AB110FBD0AA70C5FB8F8DABC970AFF5547C56D ====

CD2:Треклист:

Akt II
01. Vorspiel
Szene 1
02. Nun zaume dein Ros, reisige Maid!
03. Der alte Sturm, die alte Muh'!
04. Heut' hast du 's erlebt!
05. Nichts lerntest du, wollt' ich dich lehren
06. Was verlangst du? - Lass von dem Walsung!
07. Heiaha! Hojotoho! - Dort kommt deine kuhne Maid
Szene 2
08. Schlimm, furcht' ich, schlos der Streit
09. Lass' ich's verlauten, los' ich dann nicht
10. Ein andres ist's: achte es wohl
11. Doch der Walsung, Siegmund?
12. So nimm meinen Segen, Niblungen-Sohn!
13. So sah ich Siegvater nie
14. Raste nun hier; gonne dir Ruh'!
15. Hinweg! Hinweg! Flieh die Entweihte!
Total 59.37

Лог создания рипа:

Exact Audio Copy V1.0 beta 3 from 29. August 2011
Отчёт EAC об извлечении, выполненном 25. февраля 2015, 14:16
Richard Wagner / Die Walkure - CD2
Дисковод: Optiarc DVD RW AD-7260S Adapter: 0 ID: 1
Режим чтения : Достоверность
Использование точного потока : Да
Отключение кэша аудио : Да
Использование указателей C2 : Нет
Коррекция смещения при чтении : 48
Способность читать области Lead-in и Lead-out : Нет
Заполнение пропущенных сэмплов тишиной : Да
Удаление блоков с тишиной в начале и конце : Нет
При вычислениях CRC использовались нулевые сэмплы : Да
Интерфейс : Встроенный Win32-интерфейс для Win NT/2000
Выходной формат : Пользовательский кодировщик
Выбранный битрейт : 896 kBit/s
Качество : Высокий
Добавление ID3-тега : Нет
Утилита сжатия : C:\Program Files\FLAC Frontend\tools\flac.exe
Дополнительные параметры : -V -8 -T "Date=%year%" -T "Genre=%genre%" %source%
TOC извлечённого CD
Трек | Старт | Длительность | Начальный сектор | Конечный сектор
---------------------------------------------------------------------
1 | 0:00.00 | 2:09.24 | 0 | 9698
2 | 2:09.24 | 2:46.21 | 9699 | 22169
3 | 4:55.45 | 3:15.66 | 22170 | 36860
4 | 8:11.36 | 3:56.61 | 36861 | 54621
5 | 12:08.22 | 5:13.26 | 54622 | 78122
6 | 17:21.48 | 2:01.02 | 78123 | 87199
7 | 19:22.50 | 3:21.17 | 87200 | 102291
8 | 22:43.67 | 3:15.39 | 102292 | 116955
9 | 25:59.31 | 6:17.72 | 116956 | 145302
10 | 32:17.28 | 4:21.71 | 145303 | 164948
11 | 36:39.24 | 4:48.26 | 164949 | 186574
12 | 41:27.50 | 4:45.25 | 186575 | 207974
13 | 46:13.00 | 3:05.47 | 207975 | 221896
14 | 49:18.47 | 3:34.47 | 221897 | 237993
15 | 52:53.19 | 6:43.47 | 237994 | 268265
Характеристики диапазона извлечения и сообщения об ошибках
Выбранный диапазон
Имя файла N:\Wagner - Der Ring des Nibelungen - Thielemann\Die Walkure\CD2\Richard Wagner - Die Walkure - CD2.wav
Пиковый уровень 96.0 %
Скорость извлечения 4.0 X
Качество диапазона 100.0 %
CRC теста DCB62FA0
CRC копии DCB62FA0
Копирование... OK
Ошибок не произошло
AccurateRip: сводка
Трек 1 : извлечено точно (доверие 9) [4411C0B4] (AR v2)
Трек 2 : извлечено точно (доверие 9) [04A6DD00] (AR v2)
Трек 3 : извлечено точно (доверие 9) [033D9220] (AR v2)
Трек 4 : извлечено точно (доверие 9) [B1CD1979] (AR v2)
Трек 5 : извлечено точно (доверие 9) [D3590AAE] (AR v2)
Трек 6 : извлечено точно (доверие 9) [2722CA55] (AR v2)
Трек 7 : извлечено точно (доверие 9) [3E297BFB] (AR v2)
Трек 8 : извлечено точно (доверие 9) [5CF1614A] (AR v2)
Трек 9 : извлечено точно (доверие 9) [6FF6EC5E] (AR v2)
Трек 10 : извлечено точно (доверие 9) [05022FCB] (AR v2)
Трек 11 : извлечено точно (доверие 9) [6963E94E] (AR v2)
Трек 12 : извлечено точно (доверие 9) [42D5459D] (AR v2)
Трек 13 : извлечено точно (доверие 9) [DD67F6CB] (AR v2)
Трек 14 : извлечено точно (доверие 9) [47CD91FB] (AR v2)
Трек 15 : извлечено точно (доверие 9) [DD970831] (AR v2)
Все треки извлечены точно
Конец отчёта
==== Контрольная сумма отчёта 71932BD133DBBFC311904E17FBF4F6EDD662CAF143C9A827473620EE2DD1DC70 ====

CD3:Треклист:

Szene 4
01. Siegmund! Sieh auf mich!
02. Hehr bist du, und heilig gewahr' ich
03. Du sahest der Walkure sehrenden Blick
04. So wenig achtest du ewige Wonne?
Szene 5
05. Zauberfest bezahmt ein Schlaf
06. Kehrte der Vater nur heim!
07. Triff ihn, Siegmund! Traue dem Schwert!
Total 29.29

Лог создания рипа:

Exact Audio Copy V1.0 beta 3 from 29. August 2011
Отчёт EAC об извлечении, выполненном 26. февраля 2015, 10:04
Richard Wagner / Die Walkure - CD3
Дисковод: _NEC DVD_RW ND-3570A Adapter: 2 ID: 0
Режим чтения : Скоростной
Коррекция смещения при чтении : 48
Способность читать области Lead-in и Lead-out : Нет
Заполнение пропущенных сэмплов тишиной : Да
Удаление блоков с тишиной в начале и конце : Нет
При вычислениях CRC использовались нулевые сэмплы : Да
Интерфейс : Встроенный Win32-интерфейс для Win NT/2000
Выходной формат : Пользовательский кодировщик
Выбранный битрейт : 896 kBit/s
Качество : Высокий
Добавление ID3-тега : Нет
Утилита сжатия : C:\Program Files\FLAC Frontend\tools\flac.exe
Дополнительные параметры : -V -8 -T "Date=%year%" -T "Genre=%genre%" %source%
TOC извлечённого CD
Трек | Старт | Длительность | Начальный сектор | Конечный сектор
---------------------------------------------------------------------
1 | 0:00.00 | 7:54.08 | 0 | 35557
2 | 7:54.08 | 2:29.45 | 35558 | 46777
3 | 10:23.53 | 3:15.64 | 46778 | 61466
4 | 13:39.42 | 5:33.55 | 61467 | 86496
5 | 19:13.22 | 2:55.28 | 86497 | 99649
6 | 22:08.50 | 2:29.20 | 99650 | 110844
7 | 24:37.70 | 4:50.55 | 110845 | 132649
Характеристики диапазона извлечения и сообщения об ошибках
Выбранный диапазон
Имя файла N:\Wagner - Der Ring des Nibelungen - Thielemann\Die Walkure\CD3\Richard Wagner - Die Walkure - CD3.wav
Пиковый уровень 95.8 %
Скорость извлечения 5.5 X
CRC теста 9DEE2FCF
CRC копии 9DEE2FCF
Копирование... OK
Ошибок не произошло
AccurateRip: сводка
Трек 1 : извлечено точно (доверие 9) [44F50C23] (AR v2)
Трек 2 : извлечено точно (доверие 9) [29C6A0DA] (AR v2)
Трек 3 : извлечено точно (доверие 9) [114C5D32] (AR v2)
Трек 4 : извлечено точно (доверие 9) [763FC2C6] (AR v2)
Трек 5 : извлечено точно (доверие 9) [7C1D0E08] (AR v2)
Трек 6 : извлечено точно (доверие 9) [9BE4953D] (AR v2)
Трек 7 : извлечено точно (доверие 9) [BB1C9FEB] (AR v2)
Все треки извлечены точно
Конец отчёта
==== Контрольная сумма отчёта BCAE295BA5FF231FDDF7F582E16F86D87FEC2E38DF98E3CFF696B72F5221915B ====

CD4:Треклист:

Akt III
Szene 1
01. Walkurenritt: Hojotoho! Heiaha!
02. Schutzt mich und helft in hochster Not!
03. Nicht sehre dich Sorge um mich
04. Fort denn eile, nach Osten gewandt!
Szene 2
05. Steh! Brunnhild'!
06. Hier bin ich, Vater: gebiete die Strafe!
07. Du verstoset mich?
Szene 3
08. War es so schmahlich, was ich verbrach
09. Nicht weise bin ich
10. Der diese Liebe mir ins Herz gehaucht
11. Deinen leichten Sinnlas dich denn leiten
12. Du zeugtest ein edles Geschlecht
13. Leb' wohl, du kuhnes, herrliches Kind!
14. Denn einer nur freie die Braut
15. Der Augen leuchtendes Paar
16. Loge, hor'! Lausche hieher!
Total 73.05

Лог создания рипа:

Exact Audio Copy V1.0 beta 3 from 29. August 2011
Отчёт EAC об извлечении, выполненном 26. февраля 2015, 11:32
Richard Wagner / Die Walkure - CD4
Дисковод: _NEC DVD_RW ND-3570A Adapter: 2 ID: 0
Режим чтения : Скоростной
Коррекция смещения при чтении : 48
Способность читать области Lead-in и Lead-out : Нет
Заполнение пропущенных сэмплов тишиной : Да
Удаление блоков с тишиной в начале и конце : Нет
При вычислениях CRC использовались нулевые сэмплы : Да
Интерфейс : Встроенный Win32-интерфейс для Win NT/2000
Выходной формат : Пользовательский кодировщик
Выбранный битрейт : 896 kBit/s
Качество : Высокий
Добавление ID3-тега : Нет
Утилита сжатия : C:\Program Files\FLAC Frontend\tools\flac.exe
Дополнительные параметры : -V -8 -T "Date=%year%" -T "Genre=%genre%" %source%
TOC извлечённого CD
Трек | Старт | Длительность | Начальный сектор | Конечный сектор
---------------------------------------------------------------------
1 | 0:00.00 | 8:39.44 | 0 | 38968
2 | 8:39.44 | 3:34.09 | 38969 | 55027
3 | 12:13.53 | 3:36.36 | 55028 | 71263
4 | 15:50.14 | 2:10.10 | 71264 | 81023
5 | 18:00.24 | 4:42.12 | 81024 | 102185
6 | 22:42.36 | 2:49.23 | 102186 | 114883
7 | 25:31.59 | 6:30.04 | 114884 | 144137
8 | 32:01.63 | 5:09.50 | 144138 | 167362
9 | 37:11.38 | 3:54.35 | 167363 | 184947
10 | 41:05.73 | 3:51.42 | 184948 | 202314
11 | 44:57.40 | 3:57.43 | 202315 | 220132
12 | 48:55.08 | 5:32.66 | 220133 | 245098
13 | 54:27.74 | 2:27.64 | 245099 | 256187
14 | 56:55.63 | 2:44.03 | 256188 | 268490
15 | 59:39.66 | 6:43.04 | 268491 | 298719
16 | 66:22.70 | 6:42.38 | 298720 | 328907
Характеристики диапазона извлечения и сообщения об ошибках
Выбранный диапазон
Имя файла N:\Wagner - Der Ring des Nibelungen - Thielemann\Die Walkure\CD4\Richard Wagner - Die Walkure - CD4.wav
Пиковый уровень 96.1 %
Скорость извлечения 7.5 X
CRC теста CED0170E
CRC копии CED0170E
Копирование... OK
Ошибок не произошло
AccurateRip: сводка
Трек 1 : извлечено точно (доверие 9) [DBA9CB20] (AR v2)
Трек 2 : извлечено точно (доверие 9) [30D34BA4] (AR v2)
Трек 3 : извлечено точно (доверие 9) [58070256] (AR v2)
Трек 4 : извлечено точно (доверие 9) [4D6709FF] (AR v2)
Трек 5 : извлечено точно (доверие 9) [DC04A2F1] (AR v2)
Трек 6 : извлечено точно (доверие 9) [754181F3] (AR v2)
Трек 7 : извлечено точно (доверие 9) [8EF04F27] (AR v2)
Трек 8 : извлечено точно (доверие 9) [14416E26] (AR v2)
Трек 9 : извлечено точно (доверие 9) [14BA9D0F] (AR v2)
Трек 10 : извлечено точно (доверие 9) [FE177517] (AR v2)
Трек 11 : извлечено точно (доверие 9) [6199DA4F] (AR v2)
Трек 12 : извлечено точно (доверие 9) [B81AB9BB] (AR v2)
Трек 13 : извлечено точно (доверие 9) [E925EA54] (AR v2)
Трек 14 : извлечено точно (доверие 9) [CC0CDCEF] (AR v2)
Трек 15 : извлечено точно (доверие 9) [A317AC37] (AR v2)
Трек 16 : извлечено точно (доверие 9) [7F89A234] (AR v2)
Все треки извлечены точно
Конец отчёта
==== Контрольная сумма отчёта 616E870D9317070E40B030A64C9E950D1FC6079DFAC3795A503E0BC26D8242C3 ====

Исполнители:

Endrik Wottrich (Siegmund)
Eva-Maria Westbroek (Sieglinde)
Albert Dohmen (Wotan)
Linda Watson (Brünnhilde)
Kwangchul Youn (Hunding)
Michelle Breedt (Fricka)
Sonja Mühleck (Gerhilde)
Anna Gabler (Ortlinde)
Martina Dike (Waltraute)
Simone Schröder (Schwertleite)
Edith Haller (Helmwige)
Wilke te Brummelstroete (Siegrune)
Annette Küttenbaum (Grimgerde)
Manuela Bress (Rossweisse)
Bayreuther Festspiele Chorus & Bayreuther Festspiele Orchestra
Christian Thielemann
Siegfried:

CD1:Треклист:

Akt I
Szene 1
01. Vorspiel erster Aufzug
02. Zwangvolle Plage! Muh' ohne Zweck!
03. Hoiho! Hoiho! Hau' ein! Hau' ein!
04. Nun tobst du wieder wie toll
05. Als zullendes Kind zog ich dich auf
06. Vieles lehrtest du, Mime, und manches lernt' ich von dir
07. Ei, Mime, bist du so witzig
08. Wo hast du nun, Mime, dein minniges Weibchen
09. Einst lag wimmernd ein Weib
10. Das gab mir deine Mutter
11. Halte! Wohin? He! Siegfried!
Szene 2
12. Heil dir, weiser Schmied!
13. Hier sitz' ich am Herd
14. Du ruhrtest dich viel auf der Erde Rucken
15. Viel, Wanderer, weist du mir von der Erde Nabelnest
16. Viel, Wanderer, weist du mir von der Erde rauhem Rucken
17. Was zu wissen dir frommt, solltest du fragen
18. Nun, ehrlicher Zwerg, sag mir zum ersten
19. Wie doch genau das Geschlecht du mir nennst
20. Der witzigste bist du unter den Weisen
Szene 3
21. Verfluchtes Licht!
22. Heda! Du Fauler!
Total 58.13

Лог создания рипа:

Exact Audio Copy V1.0 beta 3 from 29. August 2011
Отчёт EAC об извлечении, выполненном 26. февраля 2015, 12:28
Richard Wagner / Siegfried - CD1
Дисковод: _NEC DVD_RW ND-3570A Adapter: 2 ID: 0
Режим чтения : Скоростной
Коррекция смещения при чтении : 48
Способность читать области Lead-in и Lead-out : Нет
Заполнение пропущенных сэмплов тишиной : Да
Удаление блоков с тишиной в начале и конце : Нет
При вычислениях CRC использовались нулевые сэмплы : Да
Интерфейс : Встроенный Win32-интерфейс для Win NT/2000
Выходной формат : Пользовательский кодировщик
Выбранный битрейт : 896 kBit/s
Качество : Высокий
Добавление ID3-тега : Нет
Утилита сжатия : C:\Program Files\FLAC Frontend\tools\flac.exe
Дополнительные параметры : -V -8 -T "Date=%year%" -T "Genre=%genre%" %source%
TOC извлечённого CD
Трек | Старт | Длительность | Начальный сектор | Конечный сектор
---------------------------------------------------------------------
1 | 0:00.00 | 3:58.29 | 0 | 17878
2 | 3:58.29 | 3:04.72 | 17879 | 31750
3 | 7:03.26 | 2:46.54 | 31751 | 44254
4 | 9:50.05 | 1:28.25 | 44255 | 50879
5 | 11:18.30 | 1:28.14 | 50880 | 57493
6 | 12:46.44 | 3:21.50 | 57494 | 72618
7 | 16:08.19 | 1:34.10 | 72619 | 79678
8 | 17:42.29 | 3:27.07 | 79679 | 95210
9 | 21:09.36 | 4:42.49 | 95211 | 116409
10 | 25:52.10 | 2:00.13 | 116410 | 125422
11 | 27:52.23 | 1:58.55 | 125423 | 134327
12 | 29:51.03 | 3:35.51 | 134328 | 150503
13 | 33:26.54 | 1:48.50 | 150504 | 158653
14 | 35:15.29 | 2:01.42 | 158654 | 167770
15 | 37:16.71 | 2:20.33 | 167771 | 178303
16 | 39:37.29 | 4:13.62 | 178304 | 197340
17 | 43:51.16 | 2:14.66 | 197341 | 207456
18 | 46:06.07 | 2:05.12 | 207457 | 216843
19 | 48:11.19 | 1:56.03 | 216844 | 225546
20 | 50:07.22 | 3:29.37 | 225547 | 241258
21 | 53:36.59 | 1:04.09 | 241259 | 246067
22 | 54:40.68 | 3:32.38 | 246068 | 262005
Характеристики диапазона извлечения и сообщения об ошибках
Выбранный диапазон
Имя файла N:\Wagner - Der Ring des Nibelungen - Thielemann\Siegfried\CD1\Richard Wagner - Siegfried - CD1.wav
Пиковый уровень 96.1 %
Скорость извлечения 6.5 X
CRC теста 6B3234E4
CRC копии 6B3234E4
Копирование... OK
Ошибок не произошло
AccurateRip: сводка
Трек 1 : извлечено точно (доверие 8) [5603CE33] (AR v2)
Трек 2 : извлечено точно (доверие 8) [68BCBF3F] (AR v2)
Трек 3 : извлечено точно (доверие 8) [E816441F] (AR v2)
Трек 4 : извлечено точно (доверие 8) [D33CC15C] (AR v2)
Трек 5 : извлечено точно (доверие 8) [C73923F5] (AR v2)
Трек 6 : извлечено точно (доверие 8) [038B7735] (AR v2)
Трек 7 : извлечено точно (доверие 8) [AD4A15F8] (AR v2)
Трек 8 : извлечено точно (доверие 8) [FED3FC4D] (AR v2)
Трек 9 : извлечено точно (доверие 8) [0A435841] (AR v2)
Трек 10 : извлечено точно (доверие 8) [5745892E] (AR v2)
Трек 11 : извлечено точно (доверие 8) [278D5D74] (AR v2)
Трек 12 : извлечено точно (доверие 8) [E0BEECD0] (AR v2)
Трек 13 : извлечено точно (доверие 8) [90BBB0FD] (AR v2)
Трек 14 : извлечено точно (доверие 8) [EE8F5507] (AR v2)
Трек 15 : извлечено точно (доверие 8) [9EA9AFAD] (AR v2)
Трек 16 : извлечено точно (доверие 8) [FB45F78C] (AR v2)
Трек 17 : извлечено точно (доверие 8) [61B0A0BB] (AR v2)
Трек 18 : извлечено точно (доверие 8) [38DA9625] (AR v2)
Трек 19 : извлечено точно (доверие 8) [AFF26B57] (AR v2)
Трек 20 : извлечено точно (доверие 8) [8D9C9DB9] (AR v2)
Трек 21 : извлечено точно (доверие 8) [9DEFF0EE] (AR v2)
Трек 22 : извлечено точно (доверие 8) [F3329E49] (AR v2)
Все треки извлечены точно
Конец отчёта
==== Контрольная сумма отчёта 9F81F1EE7DA9420D7832C236A7C347551D2406CFB0ED0625BEE974D4534813EE ====

CD2:Треклист:

Szene 3 (cont.)
01. Fuhltest du nie im finstren Wald
02. Des Vaters Stahl fugt sich wohl mir
03. Notung! Notung! Neidliches Schwert!
04. Er schmiedet das Schwert, und Fafner fallt er
05. Was schafft der Tolpel dort mit dem Topf?
06. Hoho! Hoho! Hohei!
07. Den der Bruder schuf
Akt II
08. - Vorspiel
Szene 1
09. In Wald und Nacht vor Neidhohl' halt' ich Wacht
10. Wer naht dort schimmernd im Schatten?
11. Durch Vertrages Treue-Runen
12. Deinen Sinn kenn' ich wohl
13. Fafner! Erwache, Wurm!
14. Ich lieg' und besitz': lasst mich schlafen!
Szene 2
15. Wir sind zur Stelle! Bleib hier stehn!
16. He, du Alter! Ist das alles, was deine List mich lehren kann?
17. Dass der mein Vater nicht ist
18. Aber wie sah meine Mutter wohl aus?
19. Du holdes Voglein! Dich hort' ich noch nie
20. Er schweigt und lauscht
Total 65.19

Лог создания рипа:

Exact Audio Copy V1.0 beta 3 from 29. August 2011
Отчёт EAC об извлечении, выполненном 26. февраля 2015, 22:06
Richard Wagner / Siegfried - CD2
Дисковод: _NEC DVD_RW ND-3570A Adapter: 2 ID: 0
Режим чтения : Скоростной
Коррекция смещения при чтении : 48
Способность читать области Lead-in и Lead-out : Нет
Заполнение пропущенных сэмплов тишиной : Да
Удаление блоков с тишиной в начале и конце : Нет
При вычислениях CRC использовались нулевые сэмплы : Да
Интерфейс : Встроенный Win32-интерфейс для Win NT/2000
Выходной формат : Пользовательский кодировщик
Выбранный битрейт : 896 kBit/s
Качество : Высокий
Добавление ID3-тега : Нет
Утилита сжатия : C:\Program Files\FLAC Frontend\tools\flac.exe
Дополнительные параметры : -V -8 -T "Date=%year%" -T "Genre=%genre%" %source%
TOC извлечённого CD
Трек | Старт | Длительность | Начальный сектор | Конечный сектор
---------------------------------------------------------------------
1 | 0:00.00 | 5:02.09 | 0 | 22658
2 | 5:02.09 | 3:19.01 | 22659 | 37584
3 | 8:21.10 | 3:21.34 | 37585 | 52693
4 | 11:42.44 | 3:22.18 | 52694 | 67861
5 | 15:04.62 | 1:48.50 | 67862 | 76011
6 | 16:53.37 | 3:16.27 | 76012 | 90738
7 | 20:09.64 | 3:56.06 | 90739 | 108444
8 | 24:05.70 | 5:35.55 | 108445 | 133624
9 | 29:41.50 | 2:07.13 | 133625 | 143162
10 | 31:48.63 | 3:17.08 | 143163 | 157945
11 | 35:05.71 | 2:20.41 | 157946 | 168486
12 | 37:26.37 | 3:46.53 | 168487 | 185489
13 | 41:13.15 | 2:31.44 | 185490 | 196858
14 | 43:44.59 | 4:36.00 | 196859 | 217558
15 | 48:20.59 | 3:22.64 | 217559 | 232772
16 | 51:43.48 | 2:44.64 | 232773 | 245136
17 | 54:28.37 | 1:38.74 | 245137 | 252560
18 | 56:07.36 | 3:11.24 | 252561 | 266909
19 | 59:18.60 | 2:19.36 | 266910 | 277370
20 | 61:38.21 | 3:40.28 | 277371 | 293898
Характеристики диапазона извлечения и сообщения об ошибках
Выбранный диапазон
Имя файла N:\Wagner - Der Ring des Nibelungen - Thielemann\Siegfried\CD2\Richard Wagner - Siegfried - CD2.wav
Пиковый уровень 98.3 %
Скорость извлечения 6.7 X
CRC теста 99077D4C
CRC копии 99077D4C
Копирование... OK
Ошибок не произошло
AccurateRip: сводка
Трек 1 : извлечено точно (доверие 8) [401DF444] (AR v2)
Трек 2 : извлечено точно (доверие 8) [6EB772ED] (AR v2)
Трек 3 : извлечено точно (доверие 8) [72BF9906] (AR v2)
Трек 4 : извлечено точно (доверие 8) [8960DDBF] (AR v2)
Трек 5 : извлечено точно (доверие 8) [0DBA4074] (AR v2)
Трек 6 : извлечено точно (доверие 8) [EF745D23] (AR v2)
Трек 7 : извлечено точно (доверие 8) [9D1DF979] (AR v2)
Трек 8 : извлечено точно (доверие 8) [F5698BF4] (AR v2)
Трек 9 : извлечено точно (доверие 8) [2FC19FBD] (AR v2)
Трек 10 : извлечено точно (доверие 8) [5A6142A1] (AR v2)
Трек 11 : извлечено точно (доверие 8) [D4AAE3FD] (AR v2)
Трек 12 : извлечено точно (доверие 8) [C0D6D022] (AR v2)
Трек 13 : извлечено точно (доверие 8) [34026CB0] (AR v2)
Трек 14 : извлечено точно (доверие 8) [CEEBC421] (AR v2)
Трек 15 : извлечено точно (доверие 8) [B2AE2F5B] (AR v2)
Трек 16 : извлечено точно (доверие 8) [C39CE0E8] (AR v2)
Трек 17 : извлечено точно (доверие 8) [50FB8EDE] (AR v2)
Трек 18 : извлечено точно (доверие 8) [55926E70] (AR v2)
Трек 19 : извлечено точно (доверие 8) [E974EF14] (AR v2)
Трек 20 : извлечено точно (доверие 8) [63FC263B] (AR v2)
Все треки извлечены точно
Конец отчёта
==== Контрольная сумма отчёта E4D43CFB82E3A62ABEC8D2D957FB30E231654557D5D33661B72E26EFB05A3B40 ====

CD3:Треклист:

Szene 2 (cont.)
01. Siegfrieds Hornruf
02. Haha! Da hatte mein Lied mir was Liebes erblasen!
03. Da lieg, neidischer Kerl!
04. Zur Kunde taugt kein Toter
05. Wohin schleichst du eilig und schlau, schlimmer Gesell?
06. Was ihr mir nutzt, wei. ich nicht
07. Willkommen, Siegfried!
08. Neides Zoll zahlt Nothung
09. Heis ward mir von der harten Last!
10. Nun sing! Ich lausche dem Gesang
Akt III
Szene 1
11. Vorspiel dritter Aufzug
12. Wache, Wala! Wala! Erwach'!
13. Stark ruft das Lied
14. Mein Schlaf ist Traumen
15. Wirr wird mir, seit ich erwacht
16. Dir Unweisen ruf' ich's ins Ohr
Total 56.52

Лог создания рипа:

Exact Audio Copy V1.0 beta 3 from 29. August 2011
Отчёт EAC об извлечении, выполненном 27. февраля 2015, 9:33
Richard Wagner / Siegfried - CD3
Дисковод: _NEC DVD_RW ND-3570A Adapter: 2 ID: 0
Режим чтения : Скоростной
Коррекция смещения при чтении : 48
Способность читать области Lead-in и Lead-out : Нет
Заполнение пропущенных сэмплов тишиной : Да
Удаление блоков с тишиной в начале и конце : Нет
При вычислениях CRC использовались нулевые сэмплы : Да
Интерфейс : Встроенный Win32-интерфейс для Win NT/2000
Выходной формат : Пользовательский кодировщик
Выбранный битрейт : 896 kBit/s
Качество : Высокий
Добавление ID3-тега : Нет
Утилита сжатия : C:\Program Files\FLAC Frontend\tools\flac.exe
Дополнительные параметры : -V -8 -T "Date=%year%" -T "Genre=%genre%" %source%
TOC извлечённого CD
Трек | Старт | Длительность | Начальный сектор | Конечный сектор
---------------------------------------------------------------------
1 | 0:00.00 | 2:33.19 | 0 | 11493
2 | 2:33.19 | 1:55.73 | 11494 | 20191
3 | 4:29.17 | 6:05.53 | 20192 | 47619
4 | 10:34.70 | 2:14.03 | 47620 | 57672
5 | 12:48.73 | 2:37.61 | 57673 | 69508
6 | 15:26.59 | 2:30.60 | 69509 | 80818
7 | 17:57.44 | 6:53.71 | 80819 | 111864
8 | 24:51.40 | 2:58.66 | 111865 | 125280
9 | 27:50.31 | 3:36.66 | 125281 | 141546
10 | 31:27.22 | 5:33.68 | 141547 | 166589
11 | 37:01.15 | 2:19.22 | 166590 | 177036
12 | 39:20.37 | 1:59.66 | 177037 | 186027
13 | 41:20.28 | 2:43.42 | 186028 | 198294
14 | 44:03.70 | 4:15.37 | 198295 | 217456
15 | 48:19.32 | 3:31.04 | 217457 | 233285
16 | 51:50.36 | 5:01.72 | 233286 | 255932
Характеристики диапазона извлечения и сообщения об ошибках
Выбранный диапазон
Имя файла N:\Wagner - Der Ring des Nibelungen - Thielemann\Siegfried\CD3\Richard Wagner - Siegfried - CD3.wav
Пиковый уровень 95.9 %
Скорость извлечения 6.5 X
CRC теста 0AD2C0D7
CRC копии 0AD2C0D7
Копирование... OK
Ошибок не произошло
AccurateRip: сводка
Трек 1 : извлечено точно (доверие 8) [C3C503CD] (AR v2)
Трек 2 : извлечено точно (доверие 8) [F9A439C4] (AR v2)
Трек 3 : извлечено точно (доверие 8) [74066A44] (AR v2)
Трек 4 : извлечено точно (доверие 8) [8BA045DB] (AR v2)
Трек 5 : извлечено точно (доверие 8) [4F5108F6] (AR v2)
Трек 6 : извлечено точно (доверие 8) [3312D496] (AR v2)
Трек 7 : извлечено точно (доверие 8) [62021518] (AR v2)
Трек 8 : извлечено точно (доверие 8) [9A21D285] (AR v2)
Трек 9 : извлечено точно (доверие 8) [66843E1E] (AR v2)
Трек 10 : извлечено точно (доверие 8) [B2403E41] (AR v2)
Трек 11 : извлечено точно (доверие 8) [A8F03815] (AR v2)
Трек 12 : извлечено точно (доверие 8) [C67254CB] (AR v2)
Трек 13 : извлечено точно (доверие 8) [65D2DA9D] (AR v2)
Трек 14 : извлечено точно (доверие 8) [7C26DF16] (AR v2)
Трек 15 : извлечено точно (доверие 8) [E055E12D] (AR v2)
Трек 16 : извлечено точно (доверие 8) [42220334] (AR v2)
Все треки извлечены точно
Конец отчёта
==== Контрольная сумма отчёта 6069FCE09FAE22039039D36C61918D9184CA736D7239F55886C46E92D4B87CCB ====

CD4:Треклист:

Szene 2
01. Mein Voglein schwebte mit fort!
02. Was lachst du mich aus?
03. Kenntest du mich, kuhner Spros
04. Ein Feuermeer umflutet die Frau
05. Zieh hin! Ich kann dich nicht halten!
06. Orchesterzwischenspiel
Akt III
Szene 3
07. Einleitung
08. Selige Ode auf sonniger Hoh'!
09. Das ist kein Mann!
10. Im Schlafe liegt eine Frau
11. Sie hort mich nicht
12. Heil dir, Sonne! Heil dir, Licht!
13. Durch das Feuer drang ich
14. O Siegfried! Seliger Held!
15. So starb nicht meine Mutter?
16. Wie Wunder tont, was wonnig du singst
17. Dort seh' ich Grane
18. Kein Gott nahte mir je!
19. Ewig war ich, ewig bin ich
20. Dich lieb' ich: o liebtest mich du!
21. Lachend mus ich dich lieben
Total 64.14

Лог создания рипа:

Exact Audio Copy V1.0 beta 3 from 29. August 2011
Отчёт EAC об извлечении, выполненном 27. февраля 2015, 10:41
Richard Wagner / Siegfried - CD4
Дисковод: _NEC DVD_RW ND-3570A Adapter: 2 ID: 0
Режим чтения : Скоростной
Коррекция смещения при чтении : 48
Способность читать области Lead-in и Lead-out : Нет
Заполнение пропущенных сэмплов тишиной : Да
Удаление блоков с тишиной в начале и конце : Нет
При вычислениях CRC использовались нулевые сэмплы : Да
Интерфейс : Встроенный Win32-интерфейс для Win NT/2000
Выходной формат : Пользовательский кодировщик
Выбранный битрейт : 896 kBit/s
Качество : Высокий
Добавление ID3-тега : Нет
Утилита сжатия : C:\Program Files\FLAC Frontend\tools\flac.exe
Дополнительные параметры : -V -8 -T "Date=%year%" -T "Genre=%genre%" %source%
TOC извлечённого CD
Трек | Старт | Длительность | Начальный сектор | Конечный сектор
---------------------------------------------------------------------
1 | 0:00.00 | 3:04.32 | 0 | 13831
2 | 3:04.32 | 2:50.60 | 13832 | 26641
3 | 5:55.17 | 2:23.27 | 26642 | 37393
4 | 8:18.44 | 2:17.41 | 37394 | 47709
5 | 10:36.10 | 1:23.51 | 47710 | 53985
6 | 11:59.61 | 3:12.44 | 53986 | 68429
7 | 15:12.30 | 2:29.58 | 68430 | 79662
8 | 17:42.13 | 3:52.59 | 79663 | 97121
9 | 21:34.72 | 2:45.05 | 97122 | 109501
10 | 24:20.02 | 2:31.37 | 109502 | 120863
11 | 26:51.39 | 2:18.16 | 120864 | 131229
12 | 29:09.55 | 3:49.71 | 131230 | 148475
13 | 32:59.51 | 2:01.62 | 148476 | 157612
14 | 35:01.38 | 1:58.60 | 157613 | 166522
15 | 37:00.23 | 3:00.40 | 166523 | 180062
16 | 40:00.63 | 1:47.39 | 180063 | 188126
17 | 41:48.27 | 3:36.29 | 188127 | 204355
18 | 45:24.56 | 4:46.41 | 204356 | 225846
19 | 50:11.22 | 4:44.07 | 225847 | 247153
20 | 54:55.29 | 5:48.69 | 247154 | 273322
21 | 60:44.23 | 3:29.55 | 273323 | 289052
Характеристики диапазона извлечения и сообщения об ошибках
Выбранный диапазон
Имя файла N:\Wagner - Der Ring des Nibelungen - Thielemann\Siegfried\CD4\Richard Wagner - Siegfried - CD4.wav
Пиковый уровень 95.9 %
Скорость извлечения 6.6 X
CRC теста AE981345
CRC копии AE981345
Копирование... OK
Ошибок не произошло
AccurateRip: сводка
Трек 1 : извлечено точно (доверие 8) [BCEFF0E2] (AR v2)
Трек 2 : извлечено точно (доверие 8) [259A4F83] (AR v2)
Трек 3 : извлечено точно (доверие 8) [330351F0] (AR v2)
Трек 4 : извлечено точно (доверие 8) [B4941BD0] (AR v2)
Трек 5 : извлечено точно (доверие 8) [14FFC2FC] (AR v2)
Трек 6 : извлечено точно (доверие 8) [1A725595] (AR v2)
Трек 7 : извлечено точно (доверие 8) [9C5AF859] (AR v2)
Трек 8 : извлечено точно (доверие 8) [8C3F94E8] (AR v2)
Трек 9 : извлечено точно (доверие 8) [B0338DD7] (AR v2)
Трек 10 : извлечено точно (доверие 8) [5783D4B9] (AR v2)
Трек 11 : извлечено точно (доверие 8) [1ACA77E8] (AR v2)
Трек 12 : извлечено точно (доверие 8) [8AA4E79A] (AR v2)
Трек 13 : извлечено точно (доверие 8) [E75BF421] (AR v2)
Трек 14 : извлечено точно (доверие 8) [67013696] (AR v2)
Трек 15 : извлечено точно (доверие 8) [B46F2ED3] (AR v2)
Трек 16 : извлечено точно (доверие 8) [6BD15740] (AR v2)
Трек 17 : извлечено точно (доверие 8) [D23693BF] (AR v2)
Трек 18 : извлечено точно (доверие 8) [D9949269] (AR v2)
Трек 19 : извлечено точно (доверие 8) [93DCB633] (AR v2)
Трек 20 : извлечено точно (доверие 6) [AA56246A] (AR v2)
Трек 21 : извлечено точно (доверие 8) [75CDF08F] (AR v2)
Все треки извлечены точно
Конец отчёта
==== Контрольная сумма отчёта 734BEF429E4DA2AD857469387053879F37815F540B1872F2C6676D1F38B5E9E0 ====

Исполнители:

Stephen Gould (Siegfried)
Gerhard Siegel (Mime)
Albert Dohmen (Der Wanderer)
Andrew Shore (Alberich)
Hans-Peter König (Fafner)
Christa Mayer (Erda)
Linda Watson (Brünnhilde)
Robin Johannsen (Waldvogel)
Bayreuther Festspiele Chorus & Bayreuther Festspiele Orchestra
Christian Thielemann
Götterdämmerung:

CD1:Треклист:

01. Vorspiel: Einleitung
02. Welch Licht leuchtet dort?
03. Singe, Schwester - Treu beratner Vertrage Reunen
04. Singe Schwester - Es ragt die Burg
05. Spinne, Schwester, und singe!
06. Orchesterzwischenspiel
07. Zu neuen Taten, teurer Helde
08. Mehr gabst du, Wunderfrau
09. Lass'ich, Liebste, dich hier
10. Oh! heilige Gotter!
11. Orchesterzwischenspiel: Siegfrieds Rheinfahrt
Akt I
Szene 1
12. Nun hor, Hagen, sage mir, Held
13. Brachte Siegfried die Braut dir heim
14. Jagt er auf Taten wonnig umher
Szene 2
15. Heil! Siegfried, teurer Held!
16. Begruse froh, o Held, die Halle meines Vater
17. Willkommen, Gast, in Gibichs Haus!
18. Gutrune - Sind's gute Runen
Total 67.15

Лог создания рипа:

Exact Audio Copy V1.0 beta 3 from 29. August 2011
Отчёт EAC об извлечении, выполненном 27. февраля 2015, 11:44
Richard Wagner / Gotterdammerung - CD1
Дисковод: _NEC DVD_RW ND-3570A Adapter: 2 ID: 0
Режим чтения : Скоростной
Коррекция смещения при чтении : 48
Способность читать области Lead-in и Lead-out : Нет
Заполнение пропущенных сэмплов тишиной : Да
Удаление блоков с тишиной в начале и конце : Нет
При вычислениях CRC использовались нулевые сэмплы : Да
Интерфейс : Встроенный Win32-интерфейс для Win NT/2000
Выходной формат : Пользовательский кодировщик
Выбранный битрейт : 896 kBit/s
Качество : Высокий
Добавление ID3-тега : Нет
Утилита сжатия : C:\Program Files\FLAC Frontend\tools\flac.exe
Дополнительные параметры : -V -8 -T "Date=%year%" -T "Genre=%genre%" %source%
TOC извлечённого CD
Трек | Старт | Длительность | Начальный сектор | Конечный сектор
---------------------------------------------------------------------
1 | 0:00.00 | 2:03.11 | 0 | 9235
2 | 2:03.11 | 4:40.39 | 9236 | 30274
3 | 6:43.50 | 2:08.68 | 30275 | 39942
4 | 8:52.43 | 2:33.03 | 39943 | 51420
5 | 11:25.46 | 6:13.29 | 51421 | 79424
6 | 17:39.00 | 3:40.03 | 79425 | 95927
7 | 21:19.03 | 2:17.36 | 95928 | 106238
8 | 23:36.39 | 3:09.57 | 106239 | 120470
9 | 26:46.21 | 3:51.28 | 120471 | 137823
10 | 30:37.49 | 1:28.71 | 137824 | 144494
11 | 32:06.45 | 7:10.28 | 144495 | 176772
12 | 39:16.73 | 6:28.19 | 176773 | 205891
13 | 45:45.17 | 3:29.00 | 205892 | 221566
14 | 49:14.17 | 3:22.25 | 221567 | 236741
15 | 52:36.42 | 2:37.53 | 236742 | 248569
16 | 55:14.20 | 3:43.25 | 248570 | 265319
17 | 58:57.45 | 3:10.32 | 265320 | 279601
18 | 62:08.02 | 5:06.63 | 279602 | 302614
Характеристики диапазона извлечения и сообщения об ошибках
Выбранный диапазон
Имя файла N:\Wagner - Der Ring des Nibelungen - Thielemann\Gotterdammerung\CD1\Richard Wagner - Gotterdammerung - CD1.wav
Пиковый уровень 95.9 %
Скорость извлечения 6.9 X
CRC теста 07AE69E8
CRC копии 07AE69E8
Копирование... OK
Ошибок не произошло
AccurateRip: сводка
Трек 1 : извлечено точно (доверие 11) [2A7442B5] (AR v2)
Трек 2 : извлечено точно (доверие 11) [913A20EA] (AR v2)
Трек 3 : извлечено точно (доверие 11) [043EFC73] (AR v2)
Трек 4 : извлечено точно (доверие 11) [FCAFE248] (AR v2)
Трек 5 : извлечено точно (доверие 11) [D9D23DE9] (AR v2)
Трек 6 : извлечено точно (доверие 11) [25BEC6E3] (AR v2)
Трек 7 : извлечено точно (доверие 11) [0AEFA637] (AR v2)
Трек 8 : извлечено точно (доверие 11) [BCCAB9C6] (AR v2)
Трек 9 : извлечено точно (доверие 11) [63DD1C04] (AR v2)
Трек 10 : извлечено точно (доверие 11) [2358711D] (AR v2)
Трек 11 : извлечено точно (доверие 11) [F2361276] (AR v2)
Трек 12 : извлечено точно (доверие 11) [1FA2DBE7] (AR v2)
Трек 13 : извлечено точно (доверие 11) [E95ACF6F] (AR v2)
Трек 14 : извлечено точно (доверие 11) [348D3938] (AR v2)
Трек 15 : извлечено точно (доверие 11) [F0EF2717] (AR v2)
Трек 16 : извлечено точно (доверие 11) [B1B3071A] (AR v2)
Трек 17 : извлечено точно (доверие 10) [8F108E2D] (AR v2)
Трек 18 : извлечено точно (доверие 11) [186344A9] (AR v2)
Все треки извлечены точно
Конец отчёта
==== Контрольная сумма отчёта 05CBCC0D14C8D98ADA85E4DD51D70AA0F0955A4AA903E5E898CC869BE0F9DAA3 ====

CD2:Треклист:

Szene 2 (cont.)
01. Bluhenden Lebens labendes Blut
02. Was nahmst du am Eide nicht teil?
03. Hier sitz' ich zur Wacht
04. Orchesterzwischenspiel
Szene 3
05. Altgewohntes Gerausch raunt meinem Ohr die Ferne
06. Kommst du zu mir?
07. Lockte dich, Schwester, mein Los?
08. Hore mit Sinn, was ich dir sage!
09. So sitzt er, sagt kein Wort
10. Welch banger Traume Maren meldest du Traurige mir!
11. Blitzend Gewolk, vom Wind getragen
12. Brunnhild'! Ein Freier kam
13. Wotan! Ergrimmter, grausamer Gott!
14. Jetzt bist du mein
Total 56.51

Лог создания рипа:

Exact Audio Copy V1.0 beta 3 from 29. August 2011
Отчёт EAC об извлечении, выполненном 27. февраля 2015, 12:10
Richard Wagner / Gotterdammerung - CD2
Дисковод: _NEC DVD_RW ND-3570A Adapter: 2 ID: 0
Режим чтения : Скоростной
Коррекция смещения при чтении : 48
Способность читать области Lead-in и Lead-out : Нет
Заполнение пропущенных сэмплов тишиной : Да
Удаление блоков с тишиной в начале и конце : Нет
При вычислениях CRC использовались нулевые сэмплы : Да
Интерфейс : Встроенный Win32-интерфейс для Win NT/2000
Выходной формат : Пользовательский кодировщик
Выбранный битрейт : 896 kBit/s
Качество : Высокий
Добавление ID3-тега : Нет
Утилита сжатия : C:\Program Files\FLAC Frontend\tools\flac.exe
Дополнительные параметры : -V -8 -T "Date=%year%" -T "Genre=%genre%" %source%
TOC извлечённого CD
Трек | Старт | Длительность | Начальный сектор | Конечный сектор
---------------------------------------------------------------------
1 | 0:00.00 | 2:34.46 | 0 | 11595
2 | 2:34.46 | 3:54.26 | 11596 | 29171
3 | 6:28.72 | 4:38.33 | 29172 | 50054
4 | 11:07.30 | 5:27.61 | 50055 | 74640
5 | 16:35.16 | 2:31.17 | 74641 | 85982
6 | 19:06.33 | 3:09.35 | 85983 | 100192
7 | 22:15.68 | 2:30.15 | 100193 | 111457
8 | 24:46.08 | 4:15.08 | 111458 | 130590
9 | 29:01.16 | 6:01.31 | 130591 | 157696
10 | 35:02.47 | 6:32.29 | 157697 | 187125
11 | 41:35.01 | 4:09.00 | 187126 | 205800
12 | 45:44.01 | 2:42.30 | 205801 | 217980
13 | 48:26.31 | 3:56.28 | 217981 | 235708
14 | 52:22.59 | 4:28.43 | 235709 | 255851
Характеристики диапазона извлечения и сообщения об ошибках
Выбранный диапазон
Имя файла N:\Wagner - Der Ring des Nibelungen - Thielemann\Gotterdammerung\CD2\Richard Wagner - Gotterdammerung - CD2.wav
Пиковый уровень 95.8 %
Скорость извлечения 6.5 X
CRC теста 6D85C862
CRC копии 6D85C862
Копирование... OK
Ошибок не произошло
AccurateRip: сводка
Трек 1 : извлечено точно (доверие 11) [3896CEE9] (AR v2)
Трек 2 : извлечено точно (доверие 11) [69E362F5] (AR v2)
Трек 3 : извлечено точно (доверие 11) [C060FEC3] (AR v2)
Трек 4 : извлечено точно (доверие 11) [F045A32D] (AR v2)
Трек 5 : извлечено точно (доверие 11) [35C4B10E] (AR v2)
Трек 6 : извлечено точно (доверие 11) [673B1519] (AR v2)
Трек 7 : извлечено точно (доверие 11) [3DD664CB] (AR v2)
Трек 8 : извлечено точно (доверие 11) [4EDE5433] (AR v2)
Трек 9 : извлечено точно (доверие 11) [71130887] (AR v2)
Трек 10 : извлечено точно (доверие 11) [F478D60E] (AR v2)
Трек 11 : извлечено точно (доверие 11) [B8B8C8FA] (AR v2)
Трек 12 : извлечено точно (доверие 11) [79D951CD] (AR v2)
Трек 13 : извлечено точно (доверие 11) [3C4C0584] (AR v2)
Трек 14 : извлечено точно (доверие 11) [F26A39F5] (AR v2)
Все треки извлечены точно
Конец отчёта
==== Контрольная сумма отчёта 7C52B273A3AF737DFFAA26335C385B4CED812250FA6F8B5483D64613C1EB34B7 ====

CD3:Треклист:

Akt II
01. Vorspiel
Szene 1
02. Schlafst du, Hagen, mein Sohn?
03. Der Ewigen Macht
04. Orchesterzwischenspiel
Szene 2
05. Hoiho! Hagen! Muder Mann!
Szene 3
06. Hoiho! Ihr Gilbichsmannen, machet euch auf!
07. Was tost das Horn?
08. Gros Gluck und Heil lacht nun dem Rhein
Szene 4
09. Heil dir, Gunther!
10. Brunnhild, die hehrste Frau, bring' ich euch her
11. Gegrust sei, teurer Held!
12. Was muht Brubbhildens Blick?
13. Einen Ring sah ich an deiner Hand
14. Ha! Dieser war es, der mir den Ring entris
15. Heil'ge Gotter, himmlische Lenker!
16. Wisset denn alle
17. Helle Wehr! Heilige Waffe!
18. Gunther! Wehr deinem Weibe
Szene 5
19. Welches Unholds List liegt hier verhohlen?
20. Vertraue mir, betrogne Frau!
21. Siegfried Tod!
Akt III
22. Vorspiel
Szene 1
23. Frau Sonne sendet lichte Strahlen
Total 76.32

Лог создания рипа:

Exact Audio Copy V1.0 beta 3 from 29. August 2011
Отчёт EAC об извлечении, выполненном 28. февраля 2015, 12:48
Richard Wagner / Gotterdammerung - CD3
Дисковод: _NEC DVD_RW ND-3570A Adapter: 2 ID: 0
Режим чтения : Скоростной
Коррекция смещения при чтении : 48
Способность читать области Lead-in и Lead-out : Нет
Заполнение пропущенных сэмплов тишиной : Да
Удаление блоков с тишиной в начале и конце : Нет
При вычислениях CRC использовались нулевые сэмплы : Да
Интерфейс : Встроенный Win32-интерфейс для Win NT/2000
Выходной формат : Пользовательский кодировщик
Выбранный битрейт : 896 kBit/s
Качество : Высокий
Добавление ID3-тега : Нет
Утилита сжатия : C:\Program Files\FLAC Frontend\tools\flac.exe
Дополнительные параметры : -V -8 -T "Date=%year%" -T "Genre=%genre%" %source%
TOC извлечённого CD
Трек | Старт | Длительность | Начальный сектор | Конечный сектор
---------------------------------------------------------------------
1 | 0:00.00 | 2:51.71 | 0 | 12895
2 | 2:51.71 | 3:16.68 | 12896 | 27663
3 | 6:08.64 | 4:52.54 | 27664 | 49617
4 | 11:01.43 | 2:16.15 | 49618 | 59832
5 | 13:17.58 | 5:01.48 | 59833 | 82455
6 | 18:19.31 | 1:38.63 | 82456 | 89868
7 | 19:58.19 | 4:36.66 | 89869 | 110634
8 | 24:35.10 | 2:53.40 | 110635 | 123649
9 | 27:28.50 | 1:34.38 | 123650 | 130737
10 | 29:03.13 | 1:44.69 | 130738 | 138606
11 | 30:48.07 | 2:04.30 | 138607 | 147936
12 | 32:52.37 | 1:54.74 | 147937 | 156560
13 | 34:47.36 | 1:21.74 | 156561 | 162709
14 | 36:09.35 | 2:04.71 | 162710 | 172080
15 | 38:14.31 | 2:07.03 | 172081 | 181608
16 | 40:21.34 | 3:44.34 | 181609 | 198442
17 | 44:05.68 | 3:09.31 | 198443 | 212648
18 | 47:15.24 | 4:27.47 | 212649 | 232720
19 | 51:42.71 | 3:41.13 | 232721 | 249308
20 | 55:24.09 | 5:43.69 | 249309 | 275102
21 | 61:08.03 | 8:02.37 | 275103 | 311289
22 | 69:10.40 | 2:56.62 | 311290 | 324551
23 | 72:07.27 | 4:25.01 | 324552 | 344427
Характеристики диапазона извлечения и сообщения об ошибках
Выбранный диапазон
Имя файла N:\Wagner - Der Ring des Nibelungen - Thielemann\Gotterdammerung\CD3\Richard Wagner - Gotterdammerung - CD3.wav
Пиковый уровень 95.9 %
Скорость извлечения 7.7 X
CRC теста 6F685CB0
CRC копии 6F685CB0
Копирование... OK
Ошибок не произошло
AccurateRip: сводка
Трек 1 : извлечено точно (доверие 9) [CC91CDC3] (AR v2)
Трек 2 : извлечено точно (доверие 10) [96306A0D] (AR v2)
Трек 3 : извлечено точно (доверие 10) [FC1D9FD0] (AR v2)
Трек 4 : извлечено точно (доверие 10) [1E1F7543] (AR v2)
Трек 5 : извлечено точно (доверие 10) [B0A17CA7] (AR v2)
Трек 6 : извлечено точно (доверие 10) [6E517821] (AR v2)
Трек 7 : извлечено точно (доверие 10) [FFA49D00] (AR v2)
Трек 8 : извлечено точно (доверие 10) [6F9C22AD] (AR v2)
Трек 9 : извлечено точно (доверие 10) [84CBDD51] (AR v2)
Трек 10 : извлечено точно (доверие 10) [8859A7C4] (AR v2)
Трек 11 : извлечено точно (доверие 9) [012148A0] (AR v2)
Трек 12 : извлечено точно (доверие 10) [D81A30A9] (AR v2)
Трек 13 : извлечено точно (доверие 10) [B46DB8AC] (AR v2)
Трек 14 : извлечено точно (доверие 10) [2C3C81C8] (AR v2)
Трек 15 : извлечено точно (доверие 10) [D71E4749] (AR v2)
Трек 16 : извлечено точно (доверие 10) [3D8AA989] (AR v2)
Трек 17 : извлечено точно (доверие 10) [7162F98E] (AR v2)
Трек 18 : извлечено точно (доверие 10) [19ABE721] (AR v2)
Трек 19 : извлечено точно (доверие 10) [C37B3013] (AR v2)
Трек 20 : извлечено точно (доверие 10) [39D92814] (AR v2)
Трек 21 : извлечено точно (доверие 10) [32D7971D] (AR v2)
Трек 22 : извлечено точно (доверие 10) [5A04E28A] (AR v2)
Трек 23 : извлечено точно (доверие 10) [2754E2E9] (AR v2)
Все треки извлечены точно
Конец отчёта
==== Контрольная сумма отчёта 8421CA13B33D8EA6A03B0D18ABA1553586AB9A15E2CACFAC23363452186B74EE ====

CD4:Треклист:

Szene 1 (cont.)
01. Siegfried! Was schiltst du so in den Grund?
02. Was leid' ich doch das karge Lob?
03. Ihr listigen Frauen, last das sein!
04. Kommt, Schwestern! Schwindet dem Toren!
Szene 2
05. Hoiho! - Hoiho!
06. Trink, Gunther, trink!
07. Mime hies ein murrischer Zwerg
08. In Leid zu dem Wipfel lauscht' ich hinauf
09. Was hor' ich!
10. Brunnhilde! Heilige Braut!
11. Trauermarsch
Szene 3
12. War das sein Horn?
13. Gutrun'! Holde Schwester
14. Schweigt eures Jammers jauchzenden Schwall!
15. Starke Scheite schichtet mir dort
16. O ihr, der Eide ewige Huter!
17. Mein Erbe nun nehm' ich zu eigen
18. Grane, mein Ros! Sei mir gegrust!
19. Zuruck vom Ring!
Total 74.49

Лог создания рипа:

Exact Audio Copy V1.0 beta 3 from 29. August 2011
Отчёт EAC об извлечении, выполненном 28. февраля 2015, 14:04
Richard Wagner / Gotterdammerung - CD4
Дисковод: _NEC DVD_RW ND-3570A Adapter: 2 ID: 0
Режим чтения : Скоростной
Коррекция смещения при чтении : 48
Способность читать области Lead-in и Lead-out : Нет
Заполнение пропущенных сэмплов тишиной : Да
Удаление блоков с тишиной в начале и конце : Нет
При вычислениях CRC использовались нулевые сэмплы : Да
Интерфейс : Встроенный Win32-интерфейс для Win NT/2000
Выходной формат : Пользовательский кодировщик
Выбранный битрейт : 896 kBit/s
Качество : Высокий
Добавление ID3-тега : Нет
Утилита сжатия : C:\Program Files\FLAC Frontend\tools\flac.exe
Дополнительные параметры : -V -8 -T "Date=%year%" -T "Genre=%genre%" %source%
TOC извлечённого CD
Трек | Старт | Длительность | Начальный сектор | Конечный сектор
---------------------------------------------------------------------
1 | 0:00.00 | 3:17.68 | 0 | 14842
2 | 3:17.68 | 3:15.16 | 14843 | 29483
3 | 6:33.09 | 2:39.36 | 29484 | 41444
4 | 9:12.45 | 4:15.45 | 41445 | 60614
5 | 13:28.15 | 4:01.41 | 60615 | 78730
6 | 17:29.56 | 2:31.18 | 78731 | 90073
7 | 20:00.74 | 4:42.51 | 90074 | 111274
8 | 24:43.50 | 3:28.06 | 111275 | 126880
9 | 28:11.56 | 2:13.49 | 126881 | 136904
10 | 30:25.30 | 3:46.71 | 136905 | 153925
11 | 34:12.26 | 7:34.29 | 153926 | 188004
12 | 41:46.55 | 3:35.46 | 188005 | 204175
13 | 45:22.26 | 3:33.45 | 204176 | 220195
14 | 48:55.71 | 4:05.49 | 220196 | 238619
15 | 53:01.45 | 5:03.74 | 238620 | 261418
16 | 58:05.44 | 3:52.48 | 261419 | 278866
17 | 61:58.17 | 4:10.22 | 278867 | 297638
18 | 66:08.39 | 2:23.36 | 297639 | 308399
19 | 68:32.00 | 6:17.28 | 308400 | 336702
Характеристики диапазона извлечения и сообщения об ошибках
Выбранный диапазон
Имя файла N:\Wagner - Der Ring des Nibelungen - Thielemann\Gotterdammerung\CD4\Richard Wagner - Gotterdammerung - CD4.wav
Пиковый уровень 96.5 %
Скорость извлечения 7.6 X
CRC теста 73DF9E5C
CRC копии 73DF9E5C
Копирование... OK
Ошибок не произошло
AccurateRip: сводка
Трек 1 : извлечено точно (доверие 9) [894D3585] (AR v2)
Трек 2 : извлечено точно (доверие 9) [E72C92BE] (AR v2)
Трек 3 : извлечено точно (доверие 9) [093963BE] (AR v2)
Трек 4 : извлечено точно (доверие 9) [2080D202] (AR v2)
Трек 5 : извлечено точно (доверие 9) [10010E09] (AR v2)
Трек 6 : извлечено точно (доверие 9) [8E42B259] (AR v2)
Трек 7 : извлечено точно (доверие 9) [2037040A] (AR v2)
Трек 8 : извлечено точно (доверие 9) [47CA90A2] (AR v2)
Трек 9 : извлечено точно (доверие 9) [C2A5E541] (AR v2)
Трек 10 : извлечено точно (доверие 9) [9E000048] (AR v2)
Трек 11 : извлечено точно (доверие 9) [71B15D23] (AR v2)
Трек 12 : извлечено точно (доверие 9) [8CF5F2C9] (AR v2)
Трек 13 : извлечено точно (доверие 9) [3B9AE99F] (AR v2)
Трек 14 : извлечено точно (доверие 8) [561E9FEE] (AR v2)
Трек 15 : извлечено точно (доверие 8) [C3914C7A] (AR v2)
Трек 16 : извлечено точно (доверие 9) [F9E142A6] (AR v2)
Трек 17 : извлечено точно (доверие 9) [118024BD] (AR v2)
Трек 18 : извлечено точно (доверие 9) [19ED06F3] (AR v2)
Трек 19 : извлечено точно (доверие 9) [08C1F5BD] (AR v2)
Все треки извлечены точно
Конец отчёта
==== Контрольная сумма отчёта BED3B12FE1FECBAD1B86BB19A6A6BD0DD3B69D95811903A8F5CAE46344D68FCA ====

Исполнители:

Stephen Gould (Siegfried)
Ralf Lukas (Gunther)
Andrew Shore (Alberich)
Hans-Peter König (Hagen)
Linda Watson (Brünnhilde)
Edith Haller (Gutrune)
Christa Mayer (Waltraute)
Simone Schröder (1st Norn)
Martina Dike (2nd Norn)
Edith Haller (3rd Norn)
Fionnuala McCarthy (Woglinde)
Ulrike Helzel (Wellgunde)
Simone Schröder (Floßhilde)
Bayreuther Festspiele Chorus & Bayreuther Festspiele Orchestra
Christian Thielemann



Показать сообщения:    

Текущее время: 08-Дек 05:18

Часовой пояс: UTC + 3


Вы не можете начинать темы
Вы не можете отвечать на сообщения
Вы не можете редактировать свои сообщения
Вы не можете удалять свои сообщения
Вы не можете голосовать в опросах
Вы не можете прикреплять файлы к сообщениям
Вы не можете скачивать файлы