(Classical) Ludwig van Beethoven - Complete String Quartets - Quartetto Italiano (10 CDs) - 1996, FLAC (tracks+.cue) lossless


 

[Цитировать]

Ludwig van Beethoven - Complete String Quartets - Quartetto Italiano (10 CDs)
Жанр: Classical
Страна-производитель диска: UK, Germany
Год издания диска: 1996
Издатель (лейбл): Decca Classics, Philips Classics
Номер по каталогу: 454 062-2
Дата записи: 1967-1975
Аудиокодек: FLAC
Тип рипа: tracks+.cue
Битрейт аудио: lossless
Продолжительность: 9:03:37 (47:18 + 42:23 + 1:02:08 + 1:03:55 + 1:04:58 + 59:20 + 40:34 + 57:20 + 51:48 + 53:53)
Источник: собственный рип
Наличие сканов в содержимом раздачи: да
Треклист:

Disk 01 • String Quartet Op. 18 No. 1 in F; String Quartet Op. 18 No. 2 in G

CD 1 (454 063-2)
Op. 18 No. 1 in F
F-dur • en fa majeur
[1] 1. Allegro con brio 8'51"
[2] 2. Adagio affettuoso ed appassionato 9'25"
[3] 3. Scherzo. Allegro molto 3'22"
[4] 4. Allegro 6'27"
Op. 18 No. 2 in G
G-dur • en sol majeur
[5] 1. Allegro 8'21"
[6] 2. Adagio cantabile - Allegro - Tempo I 6'41"
[7] 3. Scherzo. Allegro 4'21"
[8] 4. Allegro molto, quasi presto 5'49"

Disk 02 • String Quartet Op. 18 No. 3 in D; String Quartet Op. 18 No. 4 in c

CD 2 (454 064-2)
Op. 18 No. 3 in D
D-dur • en ré majeur
[1] 1. Allegro 8'04"
[2] 2. Andante con moto 8'27"
[3] 3. Allegro 3'01"
[4] 4. Presto 6'36"
Op. 18 No. 4 in C minor
c-moll • en ut mineur
[5] 1. Allegro ma non tanto 9'03"
[6] 2. Andante scherzoso, quasi allegretto 7'24"
[7] 3. Menuetto. Allegretto 4'16"
[8] 4. Allegro 4'21"

Disk 03 • String Quartet Op. 18 No. 5 in A; String Quartet Op. 18 No. 6 in B flat

CD 3 (454 065-2)
Op. 18 No. 5 in A
A-dur • en la majeur
[1] 1. Allegro 6'38"
[2] 2. Menuetto 5'21"
[3] 3. Andante cantabile 10'55"
[4] 4. Allegro 6'32"
Op. 18 No. 6 in B flat
B-dur • en si bémol majeur
[5] 1. Allegro con brio 6'23"
[6] 2. Adagio ma non troppo 7'28"
[7] 3. Scherzo. Allegro 3'26"
[8] 4. La Malinconia. Adagio - Allegretto quasi allegro - Adagio - Allegretto - Poco adagio – Prestissimo 10'03"

Disk 04 • String Quartet Op. 59 No. 1 in F

CD 4 (454 066-2)
Op. 59 No. 1 in F
F-dur • en fa majeur
[1] 1. Allegro 11'40"
[2] 2. Allegretto vivace e sempre scherzando 9'00"
[3] 3. Adagio molto e mesto 13'11"
[4] 4. Thème russe. Allegro 6'38"

Disk 05 • String Quartet Op. 59 No. 2 in e; String Quartet Op. 95 in f «Quartetto serioso»

CD 5 (454 067-2)
Op. 59 No. 2 in E minor
e-moll • en mi mineur
[1] 1. Allegro 10'23"
[2] 2. Molto adagio 14'20"
[3] 3. Allegretto 8'05"
[4] 4. Finale. Presto 5'41"
Op. 95 in F minor «Quartetto serioso»
f-moll • en fa mineur
[5] 1. Allegro con brio 4'19"
[6] 2. Allegretto ma non troppo 6'58"
[7] 3. Allegro assai vivace ma serioso 4'07"
[8] 4. Larghetto espressivo - Allegretto agitato 4'58"

Disk 06 • String Quartet Op. 59 No. 3 in C; String Quartet Op. 74 in E flat «Harp»

CD 6 (454 068-2)
Op. 59 No. 3 in C
C-dur • en ut majeur
[1]1. Introduzione. Andante con moto - Allegro vivace 10'41"
[2] 2. Andante con moto quasi allegretto 9'58"
[3] 3. Menuetto. Grazioso 5'01"
[4] 4. Allegro molto 6'21"
Op. 74 in E flat «Harp»
Es-dur «Harfenquartett» • en mi bémol majeur «Les harpes»
[5] 1. Poco adagio - Allegro 10'16"
[6] 2. Adagio ma non troppo 10'05"
[7] 3. Presto - Più presto quasi prestissimo 5'25"
[8] 4. Allegretto con variazioni 6'48"

Disk 07 • String Quartet Op. 127 in E flat; String Quartet Op. 135 in F

CD 7 (454 069-2)
Op. 127 in E flat
Es-dur • en mi bémol majeur
[1] 1. Maestoso - Allegro 6’58"
[2] 2. Adagio, ma non troppo e molto cantabile 15'26
[3] 3. Scherzando vivace 8'36"
[4] 4. Finale 7'04"
Op. 135 in F
F-dur • en fa majeur
[5] 1. Allegretto 6'21"
[6] 2. Vivace 4'01
[7] 3. Lento assai, cantante e tranquillo 7'12"
[8] 4. Der schwer gefaßte Entschluß. Grave - Allegro - Grave ma non troppo tratto - Allegro 7'46"

Disk 08 • String Quartet Op. 130 in B flat; «Grosse Fuge» Op. 133 in B flat

CD 8 (454 070-2)
Op. 130 in B flat
B-dur • en si bémol majeur
[1] 1. Adagio ma non troppo - Allegro 13'59"
[2] 2. Presto 2’08
[3] 3. Andante con moto ma non troppo. Poco scherzando 7'10"
[4] 4. Alla danza tedesca. Allegro assai 3'10"
[5] 5. Cavatina. Adagio molto espressivo 7'09"
[6] 6. Finale. Allegro 9'17"
«Grosse Fuge» Op. 133 in B flat
Große Fuge B-dur
Grande Fugue en si bémol majeur
[7] Overtura. Allegro - Meno mosso e moderato - Allegro - Fuga 18'53"

Disk 09 • String Quartet Op. 131 in c sharp

CD 9 (454 071-2)
Op. 131 in C sharp minor
cis-moll • en ut dièse mineur
[1] 1. Adagio ma non troppo e molto espressivo 8'53"
[2] 2. Allegro molto vivace 3 '06"
[3] 3. Allegro moderato 0'57"
[4] 4. Andante ma non troppo e molto cantabile - Più mosso - Andante moderato e lusinghiero - Adagio - Allegretto - Adagio ma non troppo e semplice - Allegretto 14'36"
[5] 5. Presto 5'35"
[6] 6. Adagio quasi un poco andante 2'26"
[7] 7. Allegro 6'48"

Disk 10 • String Quartet Op. 132 in a

CD 10 (454 072-2)
Op. 132 in A minor
a-moll • en la mineur
[1] 1. Assai sostenuto - Allegro 10'00"
[2] 2. Allegro ma non tanto 8'21"
[3] 3. Canzona di ringraziamento. Molto adagio - Sentendo nuova forza. Andante 19'33"
[4] 4. Alla marcia, assai vivace - Più allegro - Presto 2'20"
[5] 5. Allegro appassionato 6'55"

Исполнители:
QUARTETTO ITALIANO
Paolo Borciani violin • Violine • violon I
Elisa Pegreffi violin • Violine • violon II
Piero Farulli viola • alto
Franco Rossi Violoncello • violoncelle

Выходные данные записи

Recorded • Aufnahmen • Enregistrements:
Switzerland
в хронологическом порядке
8/1967 (Op. 132); 6/1968 (Op. 127, Op. 135); 4/1969 (Op. 130, Op. 133); 7/1969 (Op. 131); 1/1971 (Op. 95); 8/1971 (Op. 74); 1/1972 (Op. 18 Nos. 1, 3); 7/1973 (Op. 18 Nos. 5, 6); 12/1973 (59.2, 59.3); 7/1974 (Op. 59 No. 1); 7/1975 (Op. 18 Nos. 2, 4)
по номерам опусов
18.1 - 1/1972
18.2 - 7/1975
18.3 - 1/1972
18.4 - 7/1975
18.5 - 7/1973
18.6 - 7/1973
59.1 - 7/1974
59.2 - 12/1973
59.3 - 12/1973
74 - 8/1971
95 - 1/1971
127 - 6/1968
130 - 4/1969
131 - 7/1969
132 - 8/1967
133 - 4/1969
135 - 6/1968
℗ 1967,1968, 1969, 1971, 1972, 1973, 1974, 1975
This compilation ℗ 1989 & 1996 Philips Classics Productions. Printed in UK, made in Germany.
Полное собрание струнных квартетов Бетховена в исполнении одного из лучших ансамблей XX века - Quartetto Italiano в классическом составе (оригинальное издание Philips, переизданное Decca). В раздачу включены сканы дисков, "кармашков", коробки и приложенного к изданию 52-страничного буклета с фотографиями исполнителей и развернутыми статьями на английском, немецком, французском и итальянском языках (не являющимися, что необычно, переводами друг друга, а написанные четырьмя разными авторами; кто, как я, знает все четыре, тому повезло).

Странности в кое-какой информации, отпечатанной на коробке и в буклете

На задней стороне коробки написано, что полное время звучания - 7 часов 15 минут и сколько-то там секунд. Даже Квартет им. Альбана Берга не играет так быстро, а Итальянцы много медленнее (что, на мой взгляд, очень правильно). Как издатели сумели неправильно сложить времена, правильно отпечатанные на каждом из дисков (и приведенные в раздаче выше) - тайна, покрытая мраком. Не менее странно и отсутствие в буклете информации о том, когда были записаны квартеты Op. 59.2 и 59.3 (обо всех остальных информация есть); выше эти данные добавлены по онлайновому каталогу Декки.

Лог создания рипаDisk 1

Exact Audio Copy V1.0 beta 3 from 29. August 2011
Отчёт EAC об извлечении, выполненном 12. марта 2015, 22:45
Ludwig van Beethoven / Quartetto Italiano / Complete String Quartets Disk 1 of 10 (18.1, 18.2)
Дисковод: MATSHITABD-MLT UJ240ES Adapter: 2 ID: 0
Режим чтения : Достоверность
Использование точного потока : Да
Отключение кэша аудио : Да
Использование указателей C2 : Нет
Коррекция смещения при чтении : 103
Способность читать области Lead-in и Lead-out : Нет
Заполнение пропущенных сэмплов тишиной : Да
Удаление блоков с тишиной в начале и конце : Нет
При вычислениях CRC использовались нулевые сэмплы : Да
Интерфейс : Встроенный Win32-интерфейс для Win NT/2000
Обработка зазоров : Добавлено к предыдущему треку
Выходной формат : Пользовательский кодировщик
Выбранный битрейт : 1024 kBit/s
Качество : Высокий
Добавление ID3-тега : Нет
Утилита сжатия : C:\Program Files (x86)\Exact Audio Copy\Flac\flac.exe
Дополнительные параметры : -V -8 -T "Genre=%genre%" -T "Artist=%artist%" -T "Title=%title%" -T "Album=%albumtitle%" -T "Date=%year%" -T "Tracknumber=%tracknr%" -T "Comment=%comment%" %source%
TOC извлечённого CD
Трек | Старт | Длительность | Начальный сектор | Конечный сектор
---------------------------------------------------------------------
1 | 0:00.33 | 8:57.00 | 33 | 40307
2 | 8:57.33 | 9:30.00 | 40308 | 83057
3 | 18:27.33 | 3:26.00 | 83058 | 98507
4 | 21:53.33 | 6:36.00 | 98508 | 128207
5 | 28:29.33 | 8:29.00 | 128208 | 166382
6 | 36:58.33 | 6:44.00 | 166383 | 196682
7 | 43:42.33 | 4:24.00 | 196683 | 216482
8 | 48:06.33 | 5:56.00 | 216483 | 243182
Трек 1
Имя файла C:\Users\Nornore\Documents\EAC rips\Beethoven - Complete String Quartets, Quartetto Italiano\01 - 18.1, 18.2\01. Op.18 n°1 in F - I Allegro con brio.wav
Длина предзазора 0:00:02.33
Пиковый уровень 98.1 %
Скорость извлечения 2.9 X
Качество трека 100.0 %
CRC теста 94B9A092
CRC копии 94B9A092
Точное извлечение (достоверность 13) [E92733EC] (AR v2)
Копирование... OK
Трек 2
Имя файла C:\Users\Nornore\Documents\EAC rips\Beethoven - Complete String Quartets, Quartetto Italiano\01 - 18.1, 18.2\02. Op.18 n°1 in F - II Adagio affettuoso ed appassionato.wav
Длина предзазора 0:00:03.00
Пиковый уровень 93.9 %
Скорость извлечения 3.5 X
Качество трека 100.0 %
CRC теста D77CF9F4
CRC копии D77CF9F4
Точное извлечение (достоверность 13) [41CBCB01] (AR v2)
Копирование... OK
Трек 3
Имя файла C:\Users\Nornore\Documents\EAC rips\Beethoven - Complete String Quartets, Quartetto Italiano\01 - 18.1, 18.2\03. Op.18 n°1 in F - III Scherzo. Allegro molto.wav
Длина предзазора 0:00:03.00
Пиковый уровень 97.7 %
Скорость извлечения 3.5 X
Качество трека 100.0 %
CRC теста ED3F6C37
CRC копии ED3F6C37
Точное извлечение (достоверность 13) [029E8579] (AR v2)
Копирование... OK
Трек 4
Имя файла C:\Users\Nornore\Documents\EAC rips\Beethoven - Complete String Quartets, Quartetto Italiano\01 - 18.1, 18.2\04. Op.18 n°1 in F - IV Allegro.wav
Длина предзазора 0:00:01.00
Пиковый уровень 92.8 %
Скорость извлечения 4.0 X
Качество трека 100.0 %
CRC теста FEDB8AB1
CRC копии FEDB8AB1
Точное извлечение (достоверность 13) [9264C4FB] (AR v2)
Копирование... OK
Трек 5
Имя файла C:\Users\Nornore\Documents\EAC rips\Beethoven - Complete String Quartets, Quartetto Italiano\01 - 18.1, 18.2\05. Op.18 n°2 in G - I Allegro.wav
Длина предзазора 0:00:06.00
Пиковый уровень 69.9 %
Скорость извлечения 4.4 X
Качество трека 100.0 %
CRC теста 36BC03B2
CRC копии 36BC03B2
Точное извлечение (достоверность 13) [F1A81AF9] (AR v2)
Копирование... OK
Трек 6
Имя файла C:\Users\Nornore\Documents\EAC rips\Beethoven - Complete String Quartets, Quartetto Italiano\01 - 18.1, 18.2\06. Op.18 n°2 in G - II Adagio cantabile. Allegro. Tempo I.wav
Длина предзазора 0:00:04.00
Пиковый уровень 93.4 %
Скорость извлечения 4.7 X
Качество трека 100.0 %
CRC теста 62CCC54A
CRC копии 62CCC54A
Точное извлечение (достоверность 13) [77B666CD] (AR v2)
Копирование... OK
Трек 7
Имя файла C:\Users\Nornore\Documents\EAC rips\Beethoven - Complete String Quartets, Quartetto Italiano\01 - 18.1, 18.2\07. Op.18 n°2 in G - III Scherzo. Allegro.wav
Длина предзазора 0:00:01.00
Пиковый уровень 63.1 %
Скорость извлечения 4.7 X
Качество трека 100.0 %
CRC теста AB6F9994
CRC копии AB6F9994
Точное извлечение (достоверность 13) [B429D74E] (AR v2)
Копирование... OK
Трек 8
Имя файла C:\Users\Nornore\Documents\EAC rips\Beethoven - Complete String Quartets, Quartetto Italiano\01 - 18.1, 18.2\08. Op.18 n°2 in G - IV Allegro molto, quasi presto.wav
Длина предзазора 0:00:01.00
Пиковый уровень 77.9 %
Скорость извлечения 5.0 X
Качество трека 100.0 %
CRC теста 21579DF7
CRC копии 21579DF7
Точное извлечение (достоверность 13) [BAC304EE] (AR v2)
Копирование... OK
Все треки извлечены точно
Ошибок не произошло
Конец отчёта
==== Контрольная сумма отчёта B3B617E9238E4AD07358E717B1EA8495F5816DA31900B79161D8D5731144B79F ====

Disk 2

Exact Audio Copy V1.0 beta 3 from 29. August 2011
Отчёт EAC об извлечении, выполненном 12. марта 2015, 20:18
Ludwig van Beethoven / Quartetto Italiano / Complete String Quartets Disk 2 of 10 (18.3, 18.4)
Дисковод: MATSHITABD-MLT UJ240ES Adapter: 2 ID: 0
Режим чтения : Достоверность
Использование точного потока : Да
Отключение кэша аудио : Да
Использование указателей C2 : Нет
Коррекция смещения при чтении : 103
Способность читать области Lead-in и Lead-out : Нет
Заполнение пропущенных сэмплов тишиной : Да
Удаление блоков с тишиной в начале и конце : Нет
При вычислениях CRC использовались нулевые сэмплы : Да
Интерфейс : Встроенный Win32-интерфейс для Win NT/2000
Обработка зазоров : Добавлено к предыдущему треку
Выходной формат : Пользовательский кодировщик
Выбранный битрейт : 1024 kBit/s
Качество : Высокий
Добавление ID3-тега : Нет
Утилита сжатия : C:\Program Files (x86)\Exact Audio Copy\Flac\flac.exe
Дополнительные параметры : -V -8 -T "Genre=%genre%" -T "Artist=%artist%" -T "Title=%title%" -T "Album=%albumtitle%" -T "Date=%year%" -T "Tracknumber=%tracknr%" -T "Comment=%comment%" %source%
TOC извлечённого CD
Трек | Старт | Длительность | Начальный сектор | Конечный сектор
---------------------------------------------------------------------
1 | 0:00.33 | 8:10.00 | 33 | 36782
2 | 8:10.33 | 8:31.00 | 36783 | 75107
3 | 16:41.33 | 3:05.00 | 75108 | 88982
4 | 19:46.33 | 6:43.00 | 88983 | 119207
5 | 26:29.33 | 9:09.00 | 119208 | 160382
6 | 35:38.33 | 7:28.00 | 160383 | 193982
7 | 43:06.33 | 4:19.00 | 193983 | 213407
8 | 47:25.33 | 4:29.00 | 213408 | 233582
Трек 1
Имя файла C:\Users\Nornore\Documents\EAC rips\Beethoven - Complete String Quartets, Quartetto Italiano\02 - 18.3, 18.4\01. Op.18 n°3 in D - I Allegro.wav
Длина предзазора 0:00:02.33
Пиковый уровень 93.3 %
Скорость извлечения 2.7 X
Качество трека 99.9 %
CRC теста C056A887
CRC копии C056A887
Точное извлечение (достоверность 12) [9FE4175D] (AR v2)
Копирование... OK
Трек 2
Имя файла C:\Users\Nornore\Documents\EAC rips\Beethoven - Complete String Quartets, Quartetto Italiano\02 - 18.3, 18.4\02. Op.18 n°3 in D - II Andante con moto.wav
Длина предзазора 0:00:02.00
Пиковый уровень 98.7 %
Скорость извлечения 3.4 X
Качество трека 100.0 %
CRC теста 50F825AA
CRC копии 50F825AA
Точное извлечение (достоверность 12) [50716226] (AR v2)
Копирование... OK
Трек 3
Имя файла C:\Users\Nornore\Documents\EAC rips\Beethoven - Complete String Quartets, Quartetto Italiano\02 - 18.3, 18.4\03. Op.18 n°3 in D - III Allegro.wav
Длина предзазора 0:00:02.00
Пиковый уровень 80.9 %
Скорость извлечения 3.3 X
Качество трека 100.0 %
CRC теста F946FC4C
CRC копии F946FC4C
Точное извлечение (достоверность 12) [10A210FF] (AR v2)
Копирование... OK
Трек 4
Имя файла C:\Users\Nornore\Documents\EAC rips\Beethoven - Complete String Quartets, Quartetto Italiano\02 - 18.3, 18.4\04. Op.18 n°3 in D - IV Presto.wav
Длина предзазора 0:00:02.00
Пиковый уровень 97.9 %
Скорость извлечения 3.9 X
Качество трека 100.0 %
CRC теста 3DC24F56
CRC копии 3DC24F56
Точное извлечение (достоверность 12) [C14FFECE] (AR v2)
Копирование... OK
Трек 5
Имя файла C:\Users\Nornore\Documents\EAC rips\Beethoven - Complete String Quartets, Quartetto Italiano\02 - 18.3, 18.4\05. Op.18 n°4 in c - I Allegro ma non tanto.wav
Длина предзазора 0:00:06.00
Пиковый уровень 83.7 %
Скорость извлечения 4.4 X
Качество трека 100.0 %
CRC теста 453C23FE
CRC копии 453C23FE
Точное извлечение (достоверность 12) [EBAE48E3] (AR v2)
Копирование... OK
Трек 6
Имя файла C:\Users\Nornore\Documents\EAC rips\Beethoven - Complete String Quartets, Quartetto Italiano\02 - 18.3, 18.4\06. Op.18 n°4 in c - II Andante scherzoso, quasi allegretto.wav
Длина предзазора 0:00:04.00
Пиковый уровень 72.8 %
Скорость извлечения 4.7 X
Качество трека 100.0 %
CRC теста D1E3C96C
CRC копии D1E3C96C
Точное извлечение (достоверность 12) [E60B9DB7] (AR v2)
Копирование... OK
Трек 7
Имя файла C:\Users\Nornore\Documents\EAC rips\Beethoven - Complete String Quartets, Quartetto Italiano\02 - 18.3, 18.4\07. Op.18 n°4 in c - III Menuetto. Allegretto.wav
Длина предзазора 0:00:02.00
Пиковый уровень 67.7 %
Скорость извлечения 4.7 X
Качество трека 100.0 %
CRC теста E7F51C5A
CRC копии E7F51C5A
Точное извлечение (достоверность 12) [FB486B88] (AR v2)
Копирование... OK
Трек 8
Имя файла C:\Users\Nornore\Documents\EAC rips\Beethoven - Complete String Quartets, Quartetto Italiano\02 - 18.3, 18.4\08. Op.18 n°4 in c - IV Allegro.wav
Пиковый уровень 70.6 %
Скорость извлечения 4.8 X
Качество трека 100.0 %
CRC теста DE5D0E7C
CRC копии DE5D0E7C
Точное извлечение (достоверность 12) [09B5C772] (AR v2)
Копирование... OK
Все треки извлечены точно
Ошибок не произошло
Конец отчёта
==== Контрольная сумма отчёта D4D482E65903BCC196E4947D025B0570955AB819ADE78C05A9828C0C65A1F04E ====

Disk 3

Exact Audio Copy V1.0 beta 3 from 29. August 2011
Отчёт EAC об извлечении, выполненном 12. марта 2015, 19:18
Ludwig van Beethoven / Quartetto Italiano / Complete String Quartets Disk 3 of 10 (18.5, 18.6)
Дисковод: MATSHITABD-MLT UJ240ES Adapter: 2 ID: 0
Режим чтения : Достоверность
Использование точного потока : Да
Отключение кэша аудио : Да
Использование указателей C2 : Нет
Коррекция смещения при чтении : 103
Способность читать области Lead-in и Lead-out : Нет
Заполнение пропущенных сэмплов тишиной : Да
Удаление блоков с тишиной в начале и конце : Нет
При вычислениях CRC использовались нулевые сэмплы : Да
Интерфейс : Встроенный Win32-интерфейс для Win NT/2000
Обработка зазоров : Добавлено к предыдущему треку
Выходной формат : Пользовательский кодировщик
Выбранный битрейт : 1024 kBit/s
Качество : Высокий
Добавление ID3-тега : Нет
Утилита сжатия : C:\Program Files (x86)\Exact Audio Copy\Flac\flac.exe
Дополнительные параметры : -V -8 -T "Genre=%genre%" -T "Artist=%artist%" -T "Title=%title%" -T "Album=%albumtitle%" -T "Date=%year%" -T "Tracknumber=%tracknr%" -T "Comment=%comment%" %source%
TOC извлечённого CD
Трек | Старт | Длительность | Начальный сектор | Конечный сектор
---------------------------------------------------------------------
1 | 0:00.33 | 6:43.00 | 33 | 30257
2 | 6:43.33 | 5:24.00 | 30258 | 54557
3 | 12:07.33 | 10:59.00 | 54558 | 103982
4 | 23:06.33 | 6:42.00 | 103983 | 134132
5 | 29:48.33 | 6:30.00 | 134133 | 163382
6 | 36:18.33 | 7:33.00 | 163383 | 197357
7 | 43:51.33 | 3:28.00 | 197358 | 212957
8 | 47:19.33 | 10:09.00 | 212958 | 258632
Трек 1
Имя файла C:\Users\Nornore\Documents\EAC rips\Beethoven - Complete String Quartets, Quartetto Italiano\03 - 18.5, 18.6\01. Op.18 n°5 in A - I Allegro.wav
Длина предзазора 0:00:02.33
Пиковый уровень 80.9 %
Скорость извлечения 2.7 X
Качество трека 100.0 %
CRC теста 8E80009C
CRC копии 8E80009C
Точное извлечение (достоверность 13) [E9594041] (AR v2)
Копирование... OK
Трек 2
Имя файла C:\Users\Nornore\Documents\EAC rips\Beethoven - Complete String Quartets, Quartetto Italiano\03 - 18.5, 18.6\02. Op.18 n°5 in A - II Menuetto.wav
Длина предзазора 0:00:02.00
Пиковый уровень 61.0 %
Скорость извлечения 2.8 X
Качество трека 99.9 %
CRC теста 292BD2E3
CRC копии 292BD2E3
Точное извлечение (достоверность 13) [155E77A7] (AR v2)
Копирование... OK
Трек 3
Имя файла C:\Users\Nornore\Documents\EAC rips\Beethoven - Complete String Quartets, Quartetto Italiano\03 - 18.5, 18.6\03. Op.18 n°5 in A - III Andante cantabile.wav
Длина предзазора 0:00:02.00
Пиковый уровень 69.4 %
Скорость извлечения 3.6 X
Качество трека 99.9 %
CRC теста 28A9F513
CRC копии 28A9F513
Точное извлечение (достоверность 13) [319D13A5] (AR v2)
Копирование... OK
Трек 4
Имя файла C:\Users\Nornore\Documents\EAC rips\Beethoven - Complete String Quartets, Quartetto Italiano\03 - 18.5, 18.6\04. Op.18 n°5 in A - IV Allegro.wav
Длина предзазора 0:00:02.00
Пиковый уровень 97.7 %
Скорость извлечения 4.1 X
Качество трека 100.0 %
CRC теста D6EBF2D6
CRC копии D6EBF2D6
Точное извлечение (достоверность 13) [F0BF0AD5] (AR v2)
Копирование... OK
Трек 5
Имя файла C:\Users\Nornore\Documents\EAC rips\Beethoven - Complete String Quartets, Quartetto Italiano\03 - 18.5, 18.6\05. Op.18 n°6 in B flat - I Allegro con brio.wav
Длина предзазора 0:00:07.00
Пиковый уровень 93.6 %
Скорость извлечения 4.4 X
Качество трека 100.0 %
CRC теста 118EC7DA
CRC копии 118EC7DA
Точное извлечение (достоверность 13) [215C1040] (AR v2)
Копирование... OK
Трек 6
Имя файла C:\Users\Nornore\Documents\EAC rips\Beethoven - Complete String Quartets, Quartetto Italiano\03 - 18.5, 18.6\06. Op.18 n°6 in B flat - II Adagio ma non troppo.wav
Длина предзазора 0:00:04.00
Пиковый уровень 61.9 %
Скорость извлечения 4.7 X
Качество трека 100.0 %
CRC теста AD404CD5
CRC копии AD404CD5
Точное извлечение (достоверность 13) [E6EE2830] (AR v2)
Копирование... OK
Трек 7
Имя файла C:\Users\Nornore\Documents\EAC rips\Beethoven - Complete String Quartets, Quartetto Italiano\03 - 18.5, 18.6\07. Op.18 n°6 in B flat - III Scherzo. Allegro.wav
Длина предзазора 0:00:03.00
Пиковый уровень 86.0 %
Скорость извлечения 4.5 X
Качество трека 100.0 %
CRC теста 3E095502
CRC копии 3E095502
Точное извлечение (достоверность 13) [96C55968] (AR v2)
Копирование... OK
Трек 8
Имя файла C:\Users\Nornore\Documents\EAC rips\Beethoven - Complete String Quartets, Quartetto Italiano\03 - 18.5, 18.6\08. Op.18 n°6 in B flat - IV La Malincolia. Adagio. Allegretto quasi allegro. Adagio. Allegretto. Poco adagio. Prestissimo.wav
Пиковый уровень 84.7 %
Скорость извлечения 5.3 X
Качество трека 100.0 %
CRC теста 85DF7805
CRC копии 85DF7805
Точное извлечение (достоверность 13) [56F4FC4F] (AR v2)
Копирование... OK
Все треки извлечены точно
Ошибок не произошло
Конец отчёта
==== Контрольная сумма отчёта 2E9CC2E69B56A4E257893DBE27A3455C49CF2707640262FD893E4F24612D73A4 ====

Disk 4

Exact Audio Copy V1.0 beta 3 from 29. August 2011
Отчёт EAC об извлечении, выполненном 12. марта 2015, 18:20
Ludwig van Beethoven / Quartetto Italiano / Complete String Quartets Disk 4 of 10 (59.1)
Дисковод: MATSHITABD-MLT UJ240ES Adapter: 2 ID: 0
Режим чтения : Достоверность
Использование точного потока : Да
Отключение кэша аудио : Да
Использование указателей C2 : Нет
Коррекция смещения при чтении : 103
Способность читать области Lead-in и Lead-out : Нет
Заполнение пропущенных сэмплов тишиной : Да
Удаление блоков с тишиной в начале и конце : Нет
При вычислениях CRC использовались нулевые сэмплы : Да
Интерфейс : Встроенный Win32-интерфейс для Win NT/2000
Обработка зазоров : Добавлено к предыдущему треку
Выходной формат : Пользовательский кодировщик
Выбранный битрейт : 1024 kBit/s
Качество : Высокий
Добавление ID3-тега : Нет
Утилита сжатия : C:\Program Files (x86)\Exact Audio Copy\Flac\flac.exe
Дополнительные параметры : -V -8 -T "Genre=%genre%" -T "Artist=%artist%" -T "Title=%title%" -T "Album=%albumtitle%" -T "Date=%year%" -T "Tracknumber=%tracknr%" -T "Comment=%comment%" %source%
TOC извлечённого CD
Трек | Старт | Длительность | Начальный сектор | Конечный сектор
---------------------------------------------------------------------
1 | 0:00.33 | 11:41.00 | 33 | 52607
2 | 11:41.33 | 9:02.00 | 52608 | 93257
3 | 20:43.33 | 13:09.12 | 93258 | 152444
4 | 33:52.45 | 6:38.63 | 152445 | 182357
Трек 1
Имя файла C:\Users\Nornore\Documents\EAC rips\Beethoven - Complete String Quartets, Quartetto Italiano\04 - 59.1\01. Op.59 n°1 in F - I. Allegro.wav
Длина предзазора 0:00:02.33
Пиковый уровень 97.4 %
Скорость извлечения 3.0 X
Качество трека 100.0 %
CRC теста 63B5494C
CRC копии 63B5494C
Точное извлечение (достоверность 12) [A3287B64] (AR v2)
Копирование... OK
Трек 2
Имя файла C:\Users\Nornore\Documents\EAC rips\Beethoven - Complete String Quartets, Quartetto Italiano\04 - 59.1\02. Op.59 n°1 in F - II. Allegretto vivace e sempre scherzando.wav
Длина предзазора 0:00:05.00
Пиковый уровень 87.5 %
Скорость извлечения 3.6 X
Качество трека 100.0 %
CRC теста DE3E2340
CRC копии DE3E2340
Точное извлечение (достоверность 12) [EE474991] (AR v2)
Копирование... OK
Трек 3
Имя файла C:\Users\Nornore\Documents\EAC rips\Beethoven - Complete String Quartets, Quartetto Italiano\04 - 59.1\03. Op.59 n°1 in F - III. Adagio molto e mesto.wav
Длина предзазора 0:00:04.00
Пиковый уровень 68.6 %
Скорость извлечения 4.1 X
Качество трека 99.9 %
CRC теста E564CA04
CRC копии E564CA04
Точное извлечение (достоверность 12) [00F2CBFD] (AR v2)
Копирование... OK
Трек 4
Имя файла C:\Users\Nornore\Documents\EAC rips\Beethoven - Complete String Quartets, Quartetto Italiano\04 - 59.1\04. Op.59 n°1 in F - IV. Thème russe. Allegro.wav
Пиковый уровень 89.4 %
Скорость извлечения 4.5 X
Качество трека 100.0 %
CRC теста 05EEB685
CRC копии 05EEB685
Точное извлечение (достоверность 12) [FEB34DD5] (AR v2)
Копирование... OK
Все треки извлечены точно
Ошибок не произошло
Конец отчёта
==== Контрольная сумма отчёта 05AF130AE8B67B21CD5679583C236C39E3E92605EDD87A39966E76BEB4A9E0DF ====

Disk 5

Exact Audio Copy V1.0 beta 3 from 29. August 2011
Отчёт EAC об извлечении, выполненном 12. марта 2015, 13:59
Ludwig van Beethoven / Quartetto Italiano / Complete String Quartets Disk 5 of 10 (59.2, 95)
Дисковод: MATSHITABD-MLT UJ240ES Adapter: 2 ID: 0
Режим чтения : Достоверность
Использование точного потока : Да
Отключение кэша аудио : Да
Использование указателей C2 : Нет
Коррекция смещения при чтении : 103
Способность читать области Lead-in и Lead-out : Нет
Заполнение пропущенных сэмплов тишиной : Да
Удаление блоков с тишиной в начале и конце : Нет
При вычислениях CRC использовались нулевые сэмплы : Да
Интерфейс : Встроенный Win32-интерфейс для Win NT/2000
Обработка зазоров : Добавлено к предыдущему треку
Выходной формат : Пользовательский кодировщик
Выбранный битрейт : 1024 kBit/s
Качество : Высокий
Добавление ID3-тега : Нет
Утилита сжатия : C:\Program Files (x86)\Exact Audio Copy\Flac\flac.exe
Дополнительные параметры : -V -8 -T "Genre=%genre%" -T "Artist=%artist%" -T "Title=%title%" -T "Album=%albumtitle%" -T "Date=%year%" -T "Tracknumber=%tracknr%" -T "Comment=%comment%" %source%
TOC извлечённого CD
Трек | Старт | Длительность | Начальный сектор | Конечный сектор
---------------------------------------------------------------------
1 | 0:00.33 | 10:29.00 | 33 | 47207
2 | 10:29.33 | 14:26.00 | 47208 | 112157
3 | 24:55.33 | 8:07.00 | 112158 | 148682
4 | 33:02.33 | 5:47.00 | 148683 | 174707
5 | 38:49.33 | 4:24.00 | 174708 | 194507
6 | 43:13.33 | 6:59.50 | 194508 | 225982
7 | 50:13.08 | 4:09.25 | 225983 | 244682
8 | 54:22.33 | 4:59.00 | 244683 | 267107
Трек 1
Имя файла C:\Users\Nornore\Documents\EAC rips\Beethoven - Complete String Quartets, Quartetto Italiano\05 - 59.2, 95 Serioso\01. Op.59 n°2 in e - I Allegro.wav
Длина предзазора 0:00:02.33
Пиковый уровень 71.1 %
Скорость извлечения 2.8 X
Качество трека 99.9 %
CRC теста A5DAD3EC
CRC копии A5DAD3EC
Точное извлечение (достоверность 15) [A01D8B36] (AR v2)
Копирование... OK
Трек 2
Имя файла C:\Users\Nornore\Documents\EAC rips\Beethoven - Complete String Quartets, Quartetto Italiano\05 - 59.2, 95 Serioso\02. Op.59 n°2 in e - II Molto adagio.wav
Длина предзазора 0:00:06.00
Пиковый уровень 67.9 %
Скорость извлечения 3.8 X
Качество трека 100.0 %
CRC теста 476AA02E
CRC копии 476AA02E
Точное извлечение (достоверность 15) [C9CB7CD3] (AR v2)
Копирование... OK
Трек 3
Имя файла C:\Users\Nornore\Documents\EAC rips\Beethoven - Complete String Quartets, Quartetto Italiano\05 - 59.2, 95 Serioso\03. Op.59 n°2 in e - III Allegretto.wav
Длина предзазора 0:00:04.00
Пиковый уровень 95.2 %
Скорость извлечения 4.0 X
Качество трека 99.9 %
CRC теста 992C3158
CRC копии 992C3158
Точное извлечение (достоверность 15) [E85E887E] (AR v2)
Копирование... OK
Трек 4
Имя файла C:\Users\Nornore\Documents\EAC rips\Beethoven - Complete String Quartets, Quartetto Italiano\05 - 59.2, 95 Serioso\04. Op.59 n°2 in e - IV Finale. Presto.wav
Длина предзазора 0:00:01.00
Пиковый уровень 60.4 %
Скорость извлечения 4.5 X
Качество трека 100.0 %
CRC теста 4BFF411C
CRC копии 4BFF411C
Точное извлечение (достоверность 15) [585918DA] (AR v2)
Копирование... OK
Трек 5
Имя файла C:\Users\Nornore\Documents\EAC rips\Beethoven - Complete String Quartets, Quartetto Italiano\05 - 59.2, 95 Serioso\05. Op.95 in f ''Quartetto serioso''- I Allegro con brio.wav
Длина предзазора 0:00:08.00
Пиковый уровень 74.9 %
Скорость извлечения 4.5 X
Качество трека 100.0 %
CRC теста 9F732317
CRC копии 9F732317
Точное извлечение (достоверность 15) [55FC439C] (AR v2)
Копирование... OK
Трек 6
Имя файла C:\Users\Nornore\Documents\EAC rips\Beethoven - Complete String Quartets, Quartetto Italiano\05 - 59.2, 95 Serioso\06. Op.95 in f ''Quartetto serioso''- II Allegretto ma non troppo.wav
Длина предзазора 0:00:03.00
Пиковый уровень 64.0 %
Скорость извлечения 5.0 X
Качество трека 100.0 %
CRC теста 375D36A9
CRC копии 375D36A9
Точное извлечение (достоверность 15) [E104ACD3] (AR v2)
Копирование... OK
Трек 7
Имя файла C:\Users\Nornore\Documents\EAC rips\Beethoven - Complete String Quartets, Quartetto Italiano\05 - 59.2, 95 Serioso\07. Op.95 in f ''Quartetto serioso''- III Allegro assai vivace ma serioso.wav
Пиковый уровень 76.1 %
Скорость извлечения 4.4 X
Качество трека 99.9 %
CRC теста C921AB48
CRC копии C921AB48
Точное извлечение (достоверность 15) [60B71899] (AR v2)
Копирование... OK
Трек 8
Имя файла C:\Users\Nornore\Documents\EAC rips\Beethoven - Complete String Quartets, Quartetto Italiano\05 - 59.2, 95 Serioso\08. Op.95 in f ''Quartetto serioso''- IV Larghetto espressivo - Allegretto agitato.wav
Длина предзазора 0:00:02.00
Пиковый уровень 81.3 %
Скорость извлечения 5.2 X
Качество трека 100.0 %
CRC теста 36DABDF3
CRC копии 36DABDF3
Точное извлечение (достоверность 15) [4C86B8FA] (AR v2)
Копирование... OK
Все треки извлечены точно
Ошибок не произошло
Конец отчёта
==== Контрольная сумма отчёта 0DEBACD85DC0E82741EDB8AD19062AF56D25C6618CF24D81B1F70F7D2EE1C37E ====

Disk 6

Exact Audio Copy V1.0 beta 3 from 29. August 2011
Отчёт EAC об извлечении, выполненном 12. марта 2015, 17:33
Ludwig van Beethoven / Quartetto Italiano / Complete String Quartets Disk 6 of 10 (59.3, 74)
Дисковод: MATSHITABD-MLT UJ240ES Adapter: 2 ID: 0
Режим чтения : Достоверность
Использование точного потока : Да
Отключение кэша аудио : Да
Использование указателей C2 : Нет
Коррекция смещения при чтении : 103
Способность читать области Lead-in и Lead-out : Нет
Заполнение пропущенных сэмплов тишиной : Да
Удаление блоков с тишиной в начале и конце : Нет
При вычислениях CRC использовались нулевые сэмплы : Да
Интерфейс : Встроенный Win32-интерфейс для Win NT/2000
Обработка зазоров : Добавлено к предыдущему треку
Выходной формат : Пользовательский кодировщик
Выбранный битрейт : 1024 kBit/s
Качество : Высокий
Добавление ID3-тега : Нет
Утилита сжатия : C:\Program Files (x86)\Exact Audio Copy\Flac\flac.exe
Дополнительные параметры : -V -8 -T "Genre=%genre%" -T "Artist=%artist%" -T "Title=%title%" -T "Album=%albumtitle%" -T "Date=%year%" -T "Tracknumber=%tracknr%" -T "Comment=%comment%" %source%
TOC извлечённого CD
Трек | Старт | Длительность | Начальный сектор | Конечный сектор
---------------------------------------------------------------------
1 | 0:00.33 | 10:42.00 | 33 | 48182
2 | 10:42.33 | 10:02.00 | 48183 | 93332
3 | 20:44.33 | 5:03.00 | 93333 | 116057
4 | 25:47.33 | 6:26.00 | 116058 | 145007
5 | 32:13.33 | 10:19.00 | 145008 | 191432
6 | 42:32.33 | 10:09.00 | 191433 | 237107
7 | 52:41.33 | 5:26.17 | 237108 | 261574
8 | 58:07.50 | 6:49.58 | 261575 | 292307
Трек 1
Имя файла C:\Users\Nornore\Documents\EAC rips\Beethoven - Complete String Quartets, Quartetto Italiano\06 - 59.3, 74 Harp\01. Op.59 n°3 in C - I. Introduzione.wav
Длина предзазора 0:00:02.33
Пиковый уровень 91.4 %
Скорость извлечения 0.9 X
Качество трека 100.0 %
CRC теста 48289C50
CRC копии 48289C50
Точное извлечение (достоверность 16) [DD8CB567] (AR v2)
Копирование... OK
Трек 2
Имя файла C:\Users\Nornore\Documents\EAC rips\Beethoven - Complete String Quartets, Quartetto Italiano\06 - 59.3, 74 Harp\02. Op.59 n°3 in C - II. Andante con moto quasi allegretto.wav
Длина предзазора 0:00:03.00
Пиковый уровень 77.5 %
Скорость извлечения 1.1 X
Качество трека 100.0 %
CRC теста C3389EA2
CRC копии C3389EA2
Точное извлечение (достоверность 16) [C8748C39] (AR v2)
Копирование... OK
Трек 3
Имя файла C:\Users\Nornore\Documents\EAC rips\Beethoven - Complete String Quartets, Quartetto Italiano\06 - 59.3, 74 Harp\03. Op.59 n°3 in C - III. Menuetto. Grazioso.wav
Длина предзазора 0:00:03.00
Пиковый уровень 80.4 %
Скорость извлечения 1.1 X
Качество трека 100.0 %
CRC теста D0184D00
CRC копии D0184D00
Точное извлечение (достоверность 16) [97B9AA02] (AR v2)
Копирование... OK
Трек 4
Имя файла C:\Users\Nornore\Documents\EAC rips\Beethoven - Complete String Quartets, Quartetto Italiano\06 - 59.3, 74 Harp\04. Op.59 n°3 in C - IV. Allegro molto.wav
Пиковый уровень 91.1 %
Скорость извлечения 1.3 X
Качество трека 100.0 %
CRC теста 31F19A63
CRC копии 31F19A63
Точное извлечение (достоверность 16) [8430B9F1] (AR v2)
Копирование... OK
Трек 5
Имя файла C:\Users\Nornore\Documents\EAC rips\Beethoven - Complete String Quartets, Quartetto Italiano\06 - 59.3, 74 Harp\05. Op. 74 in E flat ''Harp'' - I. Poco adagio. Allegro.wav
Длина предзазора 0:00:06.00
Пиковый уровень 96.5 %
Скорость извлечения 1.4 X
Качество трека 100.0 %
CRC теста DEA43786
CRC копии DEA43786
Точное извлечение (достоверность 16) [B9375D10] (AR v2)
Копирование... OK
Трек 6
Имя файла C:\Users\Nornore\Documents\EAC rips\Beethoven - Complete String Quartets, Quartetto Italiano\06 - 59.3, 74 Harp\06. Op. 74 in E flat ''Harp'' - II. Adagio ma non troppo.wav
Длина предзазора 0:00:02.00
Пиковый уровень 62.9 %
Скорость извлечения 1.6 X
Качество трека 100.0 %
CRC теста 4B869412
CRC копии 4B869412
Точное извлечение (достоверность 16) [0AEE19A5] (AR v2)
Копирование... OK
Трек 7
Имя файла C:\Users\Nornore\Documents\EAC rips\Beethoven - Complete String Quartets, Quartetto Italiano\06 - 59.3, 74 Harp\07. Op. 74 in E flat ''Harp'' - III. Presto.wav
Длина предзазора 0:00:02.00
Пиковый уровень 85.9 %
Скорость извлечения 1.6 X
Качество трека 100.0 %
CRC теста 1D184D37
CRC копии 1D184D37
Точное извлечение (достоверность 16) [05C00AD8] (AR v2)
Копирование... OK
Трек 8
Имя файла C:\Users\Nornore\Documents\EAC rips\Beethoven - Complete String Quartets, Quartetto Italiano\06 - 59.3, 74 Harp\08. Op. 74 in E flat ''Harp'' - IV. Allegretto con variazioni.wav
Пиковый уровень 86.7 %
Скорость извлечения 1.7 X
Качество трека 100.0 %
CRC теста 8C9B186A
CRC копии 8C9B186A
Точное извлечение (достоверность 16) [265AF201] (AR v2)
Копирование... OK
Все треки извлечены точно
Ошибок не произошло
Конец отчёта
==== Контрольная сумма отчёта B716F54BD3A3111443F2348DB160B40C728DA736A3042740868F5F1BD967562E ====

Disk 7

Exact Audio Copy V1.0 beta 3 from 29. August 2011
Отчёт EAC об извлечении, выполненном 12. марта 2015, 23:56
Ludwig van Beethoven / Quartetto Italiano / Complete String Quartets Disk 7 of 10 (127, 135)
Дисковод: MATSHITABD-MLT UJ240ES Adapter: 2 ID: 0
Режим чтения : Достоверность
Использование точного потока : Да
Отключение кэша аудио : Да
Использование указателей C2 : Нет
Коррекция смещения при чтении : 103
Способность читать области Lead-in и Lead-out : Нет
Заполнение пропущенных сэмплов тишиной : Да
Удаление блоков с тишиной в начале и конце : Нет
При вычислениях CRC использовались нулевые сэмплы : Да
Интерфейс : Встроенный Win32-интерфейс для Win NT/2000
Обработка зазоров : Добавлено к предыдущему треку
Выходной формат : Пользовательский кодировщик
Выбранный битрейт : 1024 kBit/s
Качество : Высокий
Добавление ID3-тега : Нет
Утилита сжатия : C:\Program Files (x86)\Exact Audio Copy\Flac\flac.exe
Дополнительные параметры : -V -8 -T "Genre=%genre%" -T "Artist=%artist%" -T "Title=%title%" -T "Album=%albumtitle%" -T "Date=%year%" -T "Tracknumber=%tracknr%" -T "Comment=%comment%" %source%
TOC извлечённого CD
Трек | Старт | Длительность | Начальный сектор | Конечный сектор
---------------------------------------------------------------------
1 | 0:00.33 | 7:01.00 | 33 | 31607
2 | 7:01.33 | 15:27.00 | 31608 | 101132
3 | 22:28.33 | 8:37.00 | 101133 | 139907
4 | 31:05.33 | 7:13.00 | 139908 | 172382
5 | 38:18.33 | 6:23.00 | 172383 | 201107
6 | 44:41.33 | 4:05.00 | 201108 | 219482
7 | 48:46.33 | 7:13.00 | 219483 | 251957
8 | 55:59.33 | 7:42.00 | 251958 | 286607
Трек 1
Имя файла C:\Users\Nornore\Documents\EAC rips\Beethoven - Complete String Quartets, Quartetto Italiano\07 - 127, 135\01. Op. 127 in E flat - I. Maestoso. Allegro.wav
Длина предзазора 0:00:02.33
Пиковый уровень 98.5 %
Скорость извлечения 2.8 X
Качество трека 100.0 %
CRC теста 9120FDF1
CRC копии 9120FDF1
Точное извлечение (достоверность 16) [264001C1] (AR v2)
Копирование... OK
Трек 2
Имя файла C:\Users\Nornore\Documents\EAC rips\Beethoven - Complete String Quartets, Quartetto Italiano\07 - 127, 135\02. Op. 127 in E flat - II. Adagio ma non troppo e molto cantabile.wav
Длина предзазора 0:00:04.00
Пиковый уровень 61.7 %
Скорость извлечения 3.6 X
Качество трека 100.0 %
CRC теста 0F59AC59
CRC копии 0F59AC59
Точное извлечение (достоверность 16) [4AB6982C] (AR v2)
Копирование... OK
Трек 3
Имя файла C:\Users\Nornore\Documents\EAC rips\Beethoven - Complete String Quartets, Quartetto Italiano\07 - 127, 135\03. Op. 127 in E flat - III. Scherzando vivace.wav
Длина предзазора 0:00:03.00
Пиковый уровень 86.3 %
Скорость извлечения 4.2 X
Качество трека 100.0 %
CRC теста 38758BFA
CRC копии 38758BFA
Точное извлечение (достоверность 16) [99D6E0DE] (AR v2)
Копирование... OK
Трек 4
Имя файла C:\Users\Nornore\Documents\EAC rips\Beethoven - Complete String Quartets, Quartetto Italiano\07 - 127, 135\04. Op. 127 in E flat - IV. Finale.wav
Длина предзазора 0:00:01.00
Пиковый уровень 90.3 %
Скорость извлечения 4.5 X
Качество трека 100.0 %
CRC теста 693D6321
CRC копии 693D6321
Точное извлечение (достоверность 16) [328290B4] (AR v2)
Копирование... OK
Трек 5
Имя файла C:\Users\Nornore\Documents\EAC rips\Beethoven - Complete String Quartets, Quartetto Italiano\07 - 127, 135\05. Op. 135 in F - I. Allegretto.wav
Длина предзазора 0:00:09.00
Пиковый уровень 93.8 %
Скорость извлечения 4.7 X
Качество трека 100.0 %
CRC теста B4102793
CRC копии B4102793
Точное извлечение (достоверность 16) [8AB803FD] (AR v2)
Копирование... OK
Трек 6
Имя файла C:\Users\Nornore\Documents\EAC rips\Beethoven - Complete String Quartets, Quartetto Italiano\07 - 127, 135\06. Op. 135 in F - II. Vivace.wav
Длина предзазора 0:00:02.00
Пиковый уровень 86.8 %
Скорость извлечения 4.1 X
Качество трека 99.9 %
CRC теста EF3C889C
CRC копии EF3C889C
Точное извлечение (достоверность 16) [6E8AA6F0] (AR v2)
Копирование... OK
Трек 7
Имя файла C:\Users\Nornore\Documents\EAC rips\Beethoven - Complete String Quartets, Quartetto Italiano\07 - 127, 135\07. Op. 135 in F - III. Lento assai, cantante e tranquillo.wav
Длина предзазора 0:00:04.00
Пиковый уровень 37.3 %
Скорость извлечения 5.1 X
Качество трека 100.0 %
CRC теста 94D09EDD
CRC копии 94D09EDD
Точное извлечение (достоверность 16) [77BD4798] (AR v2)
Копирование... OK
Трек 8
Имя файла C:\Users\Nornore\Documents\EAC rips\Beethoven - Complete String Quartets, Quartetto Italiano\07 - 127, 135\08. Op. 135 in F - IV. Der schwer gefasste Entschluss. Grave. Allegro. Grave ma non troppo tratto. Allegro.wav
Длина предзазора 0:00:03.00
Пиковый уровень 85.3 %
Скорость извлечения 5.4 X
Качество трека 100.0 %
CRC теста FF4836EF
CRC копии FF4836EF
Точное извлечение (достоверность 16) [B8B2725A] (AR v2)
Копирование... OK
Все треки извлечены точно
Ошибок не произошло
Конец отчёта
==== Контрольная сумма отчёта F0A9BE7D9C5093373F5CC1B69E59688FC3F7FE6BA5F4BBAD67732FE133844843 ====

Disk 8

Exact Audio Copy V1.0 beta 3 from 29. August 2011
Отчёт EAC об извлечении, выполненном 13. марта 2015, 7:04
Ludwig van Beethoven / Quartetto Italiano / Complete String Quartets Disk 8 of 10 (130, Grosse Fuge 133)
Дисковод: MATSHITABD-MLT UJ240ES Adapter: 2 ID: 0
Режим чтения : Достоверность
Использование точного потока : Да
Отключение кэша аудио : Да
Использование указателей C2 : Нет
Коррекция смещения при чтении : 103
Способность читать области Lead-in и Lead-out : Нет
Заполнение пропущенных сэмплов тишиной : Да
Удаление блоков с тишиной в начале и конце : Нет
При вычислениях CRC использовались нулевые сэмплы : Да
Интерфейс : Встроенный Win32-интерфейс для Win NT/2000
Обработка зазоров : Добавлено к предыдущему треку
Выходной формат : Пользовательский кодировщик
Выбранный битрейт : 1024 kBit/s
Качество : Высокий
Добавление ID3-тега : Нет
Утилита сжатия : C:\Program Files (x86)\Exact Audio Copy\Flac\flac.exe
Дополнительные параметры : -V -8 -T "Genre=%genre%" -T "Artist=%artist%" -T "Title=%title%" -T "Album=%albumtitle%" -T "Date=%year%" -T "Tracknumber=%tracknr%" -T "Comment=%comment%" %source%
TOC извлечённого CD
Трек | Старт | Длительность | Начальный сектор | Конечный сектор
---------------------------------------------------------------------
1 | 0:00.33 | 14:01.00 | 33 | 63107
2 | 14:01.33 | 2:10.00 | 63108 | 72857
3 | 16:11.33 | 7:11.00 | 72858 | 105182
4 | 23:22.33 | 3:12.00 | 105183 | 119582
5 | 26:34.33 | 7:10.00 | 119583 | 151832
6 | 33:44.33 | 9:25.00 | 151833 | 194207
7 | 43:09.33 | 18:51.00 | 194208 | 279032
Трек 1
Имя файла C:\Users\Nornore\Documents\EAC rips\Beethoven - Complete String Quartets, Quartetto Italiano\08 - 130, Grosse Fuge 133\01. Op.130 in B flat - I. Adagio ma non troppo. Allegro.wav
Длина предзазора 0:00:02.33
Пиковый уровень 92.8 %
Скорость извлечения 3.1 X
Качество трека 100.0 %
CRC теста BF2E4E50
CRC копии BF2E4E50
Точное извлечение (достоверность 18) [41785BD8] (AR v2)
Копирование... OK
Трек 2
Имя файла C:\Users\Nornore\Documents\EAC rips\Beethoven - Complete String Quartets, Quartetto Italiano\08 - 130, Grosse Fuge 133\02. Op.130 in B flat - II. Presto.wav
Длина предзазора 0:00:05.00
Пиковый уровень 79.5 %
Скорость извлечения 2.4 X
Качество трека 99.9 %
CRC теста 2F92F363
CRC копии 2F92F363
Точное извлечение (достоверность 18) [D7874DC9] (AR v2)
Копирование... OK
Трек 3
Имя файла C:\Users\Nornore\Documents\EAC rips\Beethoven - Complete String Quartets, Quartetto Italiano\08 - 130, Grosse Fuge 133\03. Op.130 in B flat - III. Andante con moto ma non troppo. Poco scherzando.wav
Длина предзазора 0:00:03.00
Пиковый уровень 79.6 %
Скорость извлечения 3.8 X
Качество трека 100.0 %
CRC теста E668F859
CRC копии E668F859
Точное извлечение (достоверность 18) [D07DA9D7] (AR v2)
Копирование... OK
Трек 4
Имя файла C:\Users\Nornore\Documents\EAC rips\Beethoven - Complete String Quartets, Quartetto Italiano\08 - 130, Grosse Fuge 133\04. Op.130 in B flat - IV. Alla danza tedesca. Allegro assai.wav
Длина предзазора 0:00:02.00
Пиковый уровень 57.6 %
Скорость извлечения 3.7 X
Качество трека 100.0 %
CRC теста C70D225E
CRC копии C70D225E
Точное извлечение (достоверность 18) [BCC75110] (AR v2)
Копирование... OK
Трек 5
Имя файла C:\Users\Nornore\Documents\EAC rips\Beethoven - Complete String Quartets, Quartetto Italiano\08 - 130, Grosse Fuge 133\05. Op.130 in B flat - V. Cavatina. Adagio molto espressivo.wav
Длина предзазора 0:00:01.00
Пиковый уровень 39.0 %
Скорость извлечения 4.3 X
Качество трека 100.0 %
CRC теста 24A9920F
CRC копии 24A9920F
Точное извлечение (достоверность 18) [CCA49388] (AR v2)
Копирование... OK
Трек 6
Имя файла C:\Users\Nornore\Documents\EAC rips\Beethoven - Complete String Quartets, Quartetto Italiano\08 - 130, Grosse Fuge 133\06. Op.130 in B flat - VI. Finale. Allegro.wav
Длина предзазора 0:00:02.00
Пиковый уровень 90.2 %
Скорость извлечения 4.7 X
Качество трека 100.0 %
CRC теста 393CD4DA
CRC копии 393CD4DA
Точное извлечение (достоверность 18) [DB350F23] (AR v2)
Копирование... OK
Трек 7
Имя файла C:\Users\Nornore\Documents\EAC rips\Beethoven - Complete String Quartets, Quartetto Italiano\08 - 130, Grosse Fuge 133\07. Op.133 Grosse Fuge in B flat - Overtura. Allegro. Meno mosso e moderato. Allegro. Fuga.wav
Длина предзазора 0:00:12.00
Пиковый уровень 94.0 %
Скорость извлечения 5.4 X
Качество трека 100.0 %
CRC теста 54BA65B1
CRC копии 54BA65B1
Точное извлечение (достоверность 18) [962DDD08] (AR v2)
Копирование... OK
Все треки извлечены точно
Ошибок не произошло
Конец отчёта
==== Контрольная сумма отчёта AE7C85B8ADC6A642F8E05673F459CAB72475891FA7CDC8E330AE6BAE6DFD610F ====

Disk 9

Exact Audio Copy V1.0 beta 3 from 29. August 2011
Отчёт EAC об извлечении, выполненном 13. марта 2015, 8:57
Ludwig van Beethoven / Quartetto Italiano / Complete String Quartets Disk 9 of 10 (131)
Дисковод: MATSHITABD-MLT UJ240ES Adapter: 2 ID: 0
Режим чтения : Достоверность
Использование точного потока : Да
Отключение кэша аудио : Да
Использование указателей C2 : Нет
Коррекция смещения при чтении : 103
Способность читать области Lead-in и Lead-out : Нет
Заполнение пропущенных сэмплов тишиной : Да
Удаление блоков с тишиной в начале и конце : Нет
При вычислениях CRC использовались нулевые сэмплы : Да
Интерфейс : Встроенный Win32-интерфейс для Win NT/2000
Обработка зазоров : Добавлено к предыдущему треку
Выходной формат : Пользовательский кодировщик
Выбранный битрейт : 1024 kBit/s
Качество : Высокий
Добавление ID3-тега : Нет
Утилита сжатия : C:\Program Files (x86)\Exact Audio Copy\Flac\flac.exe
Дополнительные параметры : -V -8 -T "Genre=%genre%" -T "Artist=%artist%" -T "Title=%title%" -T "Album=%albumtitle%" -T "Date=%year%" -T "Tracknumber=%tracknr%" -T "Comment=%comment%" %source%
TOC извлечённого CD
Трек | Старт | Длительность | Начальный сектор | Конечный сектор
---------------------------------------------------------------------
1 | 0:00.33 | 8:51.47 | 33 | 39904
2 | 8:52.05 | 3:05.35 | 39905 | 53814
3 | 11:57.40 | 0:57.18 | 53815 | 58107
4 | 12:54.58 | 14:37.50 | 58108 | 123932
5 | 27:32.33 | 5:35.00 | 123933 | 149057
6 | 33:07.33 | 2:26.15 | 149058 | 160022
7 | 35:33.48 | 6:48.60 | 160023 | 190682
Трек 1
Имя файла C:\Users\Nornore\Documents\EAC rips\Beethoven - Complete String Quartets, Quartetto Italiano\09 - 131\01. Op.131 in c sharp - I. Adagio ma non troppo e molto espressivo.wav
Длина предзазора 0:00:02.33
Пиковый уровень 61.2 %
Скорость извлечения 2.9 X
Качество трека 100.0 %
CRC теста 3E3F054E
CRC копии 3E3F054E
Точное извлечение (достоверность 18) [75DE5786] (AR v2)
Копирование... OK
Трек 2
Имя файла C:\Users\Nornore\Documents\EAC rips\Beethoven - Complete String Quartets, Quartetto Italiano\09 - 131\02. Op.131 in c sharp - II. Allegro molto vivace.wav
Пиковый уровень 85.4 %
Скорость извлечения 2.9 X
Качество трека 100.0 %
CRC теста 2958096D
CRC копии 2958096D
Точное извлечение (достоверность 18) [34AA8905] (AR v2)
Копирование... OK
Трек 3
Имя файла C:\Users\Nornore\Documents\EAC rips\Beethoven - Complete String Quartets, Quartetto Italiano\09 - 131\03. Op.131 in c sharp - III. Allegro moderato.wav
Пиковый уровень 52.8 %
Скорость извлечения 2.2 X
Качество трека 100.0 %
CRC теста D564752E
CRC копии D564752E
Точное извлечение (достоверность 18) [268DC446] (AR v2)
Копирование... OK
Трек 4
Имя файла C:\Users\Nornore\Documents\EAC rips\Beethoven - Complete String Quartets, Quartetto Italiano\09 - 131\04. Op.131 in c sharp - IV. And. m-n-t. e molto cantabile. Più mosso. And. moderato e lusinghiero. Adag. Algrto. Adag.m-n-t e semplice. Algrto.wav
Пиковый уровень 82.5 %
Скорость извлечения 3.9 X
Качество трека 100.0 %
CRC теста FE461AFA
CRC копии FE461AFA
Точное извлечение (достоверность 18) [91C14BA7] (AR v2)
Копирование... OK
Трек 5
Имя файла C:\Users\Nornore\Documents\EAC rips\Beethoven - Complete String Quartets, Quartetto Italiano\09 - 131\05. Op.131 in c sharp - V. Presto.wav
Длина предзазора 0:00:03.00
Пиковый уровень 97.0 %
Скорость извлечения 3.8 X
Качество трека 99.9 %
CRC теста 3031BE2A
CRC копии 3031BE2A
Точное извлечение (достоверность 17) [E0B5B623] (AR v2)
Копирование... OK
Трек 6
Имя файла C:\Users\Nornore\Documents\EAC rips\Beethoven - Complete String Quartets, Quartetto Italiano\09 - 131\06. Op.131 in c sharp - VI. Adagio quasi un poco andante.wav
Пиковый уровень 38.7 %
Скорость извлечения 3.9 X
Качество трека 100.0 %
CRC теста 669CFC62
CRC копии 669CFC62
Точное извлечение (достоверность 18) [256BA9E2] (AR v2)
Копирование... OK
Трек 7
Имя файла C:\Users\Nornore\Documents\EAC rips\Beethoven - Complete String Quartets, Quartetto Italiano\09 - 131\07. Op.131 in c sharp - VII. Allegro.wav
Пиковый уровень 84.2 %
Скорость извлечения 4.6 X
Качество трека 100.0 %
CRC теста 89588E2E
CRC копии 89588E2E
Точное извлечение (достоверность 18) [DA4210F8] (AR v2)
Копирование... OK
Все треки извлечены точно
Ошибок не произошло
Конец отчёта
==== Контрольная сумма отчёта 48B3C722F044810778F0FDA14C23B65EB531D5281BB9D2F104CE907B5454A13C ====

Disk 10

Exact Audio Copy V1.0 beta 3 from 29. August 2011
Отчёт EAC об извлечении, выполненном 13. марта 2015, 9:49
Ludwig van Beethoven / Quartetto Italiano / Complete String Quartets Disk 10 of 10 (132)
Дисковод: MATSHITABD-MLT UJ240ES Adapter: 2 ID: 0
Режим чтения : Достоверность
Использование точного потока : Да
Отключение кэша аудио : Да
Использование указателей C2 : Нет
Коррекция смещения при чтении : 103
Способность читать области Lead-in и Lead-out : Нет
Заполнение пропущенных сэмплов тишиной : Да
Удаление блоков с тишиной в начале и конце : Нет
При вычислениях CRC использовались нулевые сэмплы : Да
Интерфейс : Встроенный Win32-интерфейс для Win NT/2000
Обработка зазоров : Добавлено к предыдущему треку
Выходной формат : Пользовательский кодировщик
Выбранный битрейт : 1024 kBit/s
Качество : Высокий
Добавление ID3-тега : Нет
Утилита сжатия : C:\Program Files (x86)\Exact Audio Copy\Flac\flac.exe
Дополнительные параметры : -V -8 -T "Genre=%genre%" -T "Artist=%artist%" -T "Title=%title%" -T "Album=%albumtitle%" -T "Date=%year%" -T "Tracknumber=%tracknr%" -T "Comment=%comment%" %source%
TOC извлечённого CD
Трек | Старт | Длительность | Начальный сектор | Конечный сектор
---------------------------------------------------------------------
1 | 0:00.33 | 10:03.00 | 33 | 45257
2 | 10:03.33 | 8:21.00 | 45258 | 82832
3 | 18:24.33 | 19:34.00 | 82833 | 170882
4 | 37:58.33 | 2:18.60 | 170883 | 181292
5 | 40:17.18 | 6:53.15 | 181293 | 212282
Трек 1
Имя файла C:\Users\Nornore\Documents\EAC rips\Beethoven - Complete String Quartets, Quartetto Italiano\10 - 132\01. Op. 132 in a - I. Allegro sostenuto. Allegro.wav
Длина предзазора 0:00:02.33
Пиковый уровень 99.4 %
Скорость извлечения 2.9 X
Качество трека 100.0 %
CRC теста C94D4CF2
CRC копии C94D4CF2
Точное извлечение (достоверность 15) [E4DB505C] (AR v2)
Копирование... OK
Трек 2
Имя файла C:\Users\Nornore\Documents\EAC rips\Beethoven - Complete String Quartets, Quartetto Italiano\10 - 132\02. Op. 132 in a - II. Allegro ma non tanto.wav
Длина предзазора 0:00:03.00
Пиковый уровень 82.9 %
Скорость извлечения 3.3 X
Качество трека 99.9 %
CRC теста 58A72038
CRC копии 58A72038
Точное извлечение (достоверность 15) [50FD81A6] (AR v2)
Копирование... OK
Трек 3
Имя файла C:\Users\Nornore\Documents\EAC rips\Beethoven - Complete String Quartets, Quartetto Italiano\10 - 132\03. Op. 132 in a - III. Canzona di ringraziamento. Molto adagio. Sentendo nuova forza. Andante.wav
Длина предзазора 0:00:02.00
Пиковый уровень 70.9 %
Скорость извлечения 4.4 X
Качество трека 100.0 %
CRC теста A474C2FD
CRC копии A474C2FD
Точное извлечение (достоверность 15) [788680F1] (AR v2)
Копирование... OK
Трек 4
Имя файла C:\Users\Nornore\Documents\EAC rips\Beethoven - Complete String Quartets, Quartetto Italiano\10 - 132\04. Op. 132 in a - IV. Alla marcia, assai vivace. Più allegro. Presto.wav
Длина предзазора 0:00:04.00
Пиковый уровень 63.3 %
Скорость извлечения 3.3 X
Качество трека 99.9 %
CRC теста D63089C4
CRC копии D63089C4
Точное извлечение (достоверность 15) [E1CF72CA] (AR v2)
Копирование... OK
Трек 5
Имя файла C:\Users\Nornore\Documents\EAC rips\Beethoven - Complete String Quartets, Quartetto Italiano\10 - 132\05. Op. 132 in a - V. Allegro appassionato.wav
Пиковый уровень 87.5 %
Скорость извлечения 4.8 X
Качество трека 100.0 %
CRC теста FDD83554
CRC копии FDD83554
Точное извлечение (достоверность 14) [1D87DF8A] (AR v2)
Копирование... OK
Все треки извлечены точно
Ошибок не произошло
Конец отчёта
==== Контрольная сумма отчёта E5DF94EB0E2B0B36C854330943FBA1969B3502E7D09120EE8C515D5F5BCCC388 ====

Содержание индексной карты (.CUE)Disk 1

REM GENRE "Chamber Music"
REM DATE 1972
REM DISCID 600CAA08
REM COMMENT "ExactAudioCopy v1.0b3"
CATALOG 0028945406329
PERFORMER "Ludwig van Beethoven / Quartetto Italiano"
TITLE "Complete String Quartets Disk 1 of 10 (18.1, 18.2)"
FILE "01. Op.18 n°1 in F - I Allegro con brio.wav" WAVE
TRACK 01 AUDIO
TITLE "Op.18 n°1 in F - I Allegro con brio"
PERFORMER "Ludwig van Beethoven / Quartetto Italiano"
ISRC NLA507200688
PREGAP 00:00:33
INDEX 01 00:00:00
TRACK 02 AUDIO
TITLE "Op.18 n°1 in F - II Adagio affettuoso ed appassionato"
PERFORMER "Ludwig van Beethoven / Quartetto Italiano"
ISRC NLA507200689
INDEX 00 08:54:00
FILE "02. Op.18 n°1 in F - II Adagio affettuoso ed appassionato.wav" WAVE
INDEX 01 00:00:00
TRACK 03 AUDIO
TITLE "Op.18 n°1 in F - III Scherzo. Allegro molto"
PERFORMER "Ludwig van Beethoven / Quartetto Italiano"
ISRC NLA507200690
INDEX 00 09:27:00
FILE "03. Op.18 n°1 in F - III Scherzo. Allegro molto.wav" WAVE
INDEX 01 00:00:00
TRACK 04 AUDIO
TITLE "Op.18 n°1 in F - IV Allegro"
PERFORMER "Ludwig van Beethoven / Quartetto Italiano"
ISRC NLA507200691
INDEX 00 03:25:00
FILE "04. Op.18 n°1 in F - IV Allegro.wav" WAVE
INDEX 01 00:00:00
TRACK 05 AUDIO
TITLE "Op.18 n°2 in G - I Allegro"
PERFORMER "Ludwig van Beethoven / Quartetto Italiano"
ISRC NLA507400598
INDEX 00 06:30:00
FILE "05. Op.18 n°2 in G - I Allegro.wav" WAVE
INDEX 01 00:00:00
TRACK 06 AUDIO
TITLE "Op.18 n°2 in G - II Adagio cantabile. Allegro. Tempo I"
PERFORMER "Ludwig van Beethoven / Quartetto Italiano"
ISRC NLA507400599
INDEX 00 08:25:00
FILE "06. Op.18 n°2 in G - II Adagio cantabile. Allegro. Tempo I.wav" WAVE
INDEX 01 00:00:00
TRACK 07 AUDIO
TITLE "Op.18 n°2 in G - III Scherzo. Allegro"
PERFORMER "Ludwig van Beethoven / Quartetto Italiano"
ISRC NLA507400600
INDEX 00 06:43:00
FILE "07. Op.18 n°2 in G - III Scherzo. Allegro.wav" WAVE
INDEX 01 00:00:00
TRACK 08 AUDIO
TITLE "Op.18 n°2 in G - IV Allegro molto, quasi presto"
PERFORMER "Ludwig van Beethoven / Quartetto Italiano"
ISRC NLA507400601
INDEX 00 04:23:00
FILE "08. Op.18 n°2 in G - IV Allegro molto, quasi presto.wav" WAVE
INDEX 01 00:00:00

Disk 2

REM GENRE Classical
REM DATE 1975
REM DISCID 6A0C2A08
REM COMMENT "ExactAudioCopy v1.0b3"
CATALOG 0028945406428
PERFORMER "Ludwig van Beethoven / Quartetto Italiano"
TITLE "Complete String Quartets Disk 2 of 10 (18.3, 18.4)"
FILE "01. Op.18 n°3 in D - I Allegro.wav" WAVE
TRACK 01 AUDIO
TITLE "Op.18 n°3 in D - I Allegro"
PERFORMER "Ludwig van Beethoven / Quartetto Italiano"
ISRC NLA507200684
PREGAP 00:00:33
INDEX 01 00:00:00
TRACK 02 AUDIO
TITLE "Op.18 n°3 in D - II Andante con moto"
PERFORMER "Ludwig van Beethoven / Quartetto Italiano"
ISRC NLA507200685
INDEX 00 08:08:00
FILE "02. Op.18 n°3 in D - II Andante con moto.wav" WAVE
INDEX 01 00:00:00
TRACK 03 AUDIO
TITLE "Op.18 n°3 in D - III Allegro"
PERFORMER "Ludwig van Beethoven / Quartetto Italiano"
ISRC NLA507200686
INDEX 00 08:29:00
FILE "03. Op.18 n°3 in D - III Allegro.wav" WAVE
INDEX 01 00:00:00
TRACK 04 AUDIO
TITLE "Op.18 n°3 in D - IV Presto"
PERFORMER "Ludwig van Beethoven / Quartetto Italiano"
ISRC NLA507200687
INDEX 00 03:03:00
FILE "04. Op.18 n°3 in D - IV Presto.wav" WAVE
INDEX 01 00:00:00
TRACK 05 AUDIO
TITLE "Op.18 n°4 in c - I Allegro ma non tanto"
PERFORMER "Ludwig van Beethoven / Quartetto Italiano"
ISRC NLA507400602
INDEX 00 06:37:00
FILE "05. Op.18 n°4 in c - I Allegro ma non tanto.wav" WAVE
INDEX 01 00:00:00
TRACK 06 AUDIO
TITLE "Op.18 n°4 in c - II Andante scherzoso, quasi allegretto"
PERFORMER "Ludwig van Beethoven / Quartetto Italiano"
ISRC NLA507400603
INDEX 00 09:05:00
FILE "06. Op.18 n°4 in c - II Andante scherzoso, quasi allegretto.wav" WAVE
INDEX 01 00:00:00
TRACK 07 AUDIO
TITLE "Op.18 n°4 in c - III Menuetto. Allegretto"
PERFORMER "Ludwig van Beethoven / Quartetto Italiano"
ISRC NLA507400604
INDEX 00 07:26:00
FILE "07. Op.18 n°4 in c - III Menuetto. Allegretto.wav" WAVE
INDEX 01 00:00:00
FILE "08. Op.18 n°4 in c - IV Allegro.wav" WAVE
TRACK 08 AUDIO
TITLE "Op.18 n°4 in c - IV Allegro"
PERFORMER "Ludwig van Beethoven / Quartetto Italiano"
ISRC NLA507400605
INDEX 01 00:00:00

Disk 3

REM GENRE Classical
REM DATE 1973
REM DISCID 6A0D7808
REM COMMENT "ExactAudioCopy v1.0b3"
CATALOG 0028945406527
PERFORMER "Ludwig van Beethoven / Quartetto Italiano"
TITLE "Complete String Quartets Disk 3 of 10 (18.5, 18.6)"
FILE "01. Op.18 n°5 in A - I Allegro.wav" WAVE
TRACK 01 AUDIO
TITLE "Op.18 n°5 in A - I Allegro"
PERFORMER "Ludwig van Beethoven / Quartetto Italiano"
ISRC NLA507300505
PREGAP 00:00:33
INDEX 01 00:00:00
TRACK 02 AUDIO
TITLE "Op.18 n°5 in A - II Menuetto"
PERFORMER "Ludwig van Beethoven / Quartetto Italiano"
ISRC NLA507300506
INDEX 00 06:41:00
FILE "02. Op.18 n°5 in A - II Menuetto.wav" WAVE
INDEX 01 00:00:00
TRACK 03 AUDIO
TITLE "Op.18 n°5 in A - III Andante cantabile"
PERFORMER "Ludwig van Beethoven / Quartetto Italiano"
ISRC NLA507300507
INDEX 00 05:22:00
FILE "03. Op.18 n°5 in A - III Andante cantabile.wav" WAVE
INDEX 01 00:00:00
TRACK 04 AUDIO
TITLE "Op.18 n°5 in A - IV Allegro"
PERFORMER "Ludwig van Beethoven / Quartetto Italiano"
ISRC NLA507300508
INDEX 00 10:57:00
FILE "04. Op.18 n°5 in A - IV Allegro.wav" WAVE
INDEX 01 00:00:00
TRACK 05 AUDIO
TITLE "Op.18 n°6 in B flat - I Allegro con brio"
PERFORMER "Ludwig van Beethoven / Quartetto Italiano"
ISRC NLA507300509
INDEX 00 06:35:00
FILE "05. Op.18 n°6 in B flat - I Allegro con brio.wav" WAVE
INDEX 01 00:00:00
TRACK 06 AUDIO
TITLE "Op.18 n°6 in B flat - II Adagio ma non troppo"
PERFORMER "Ludwig van Beethoven / Quartetto Italiano"
ISRC NLA507300510
INDEX 00 06:26:00
FILE "06. Op.18 n°6 in B flat - II Adagio ma non troppo.wav" WAVE
INDEX 01 00:00:00
TRACK 07 AUDIO
TITLE "Op.18 n°6 in B flat - III Scherzo. Allegro"
PERFORMER "Ludwig van Beethoven / Quartetto Italiano"
ISRC NLA507300511
INDEX 00 07:30:00
FILE "07. Op.18 n°6 in B flat - III Scherzo. Allegro.wav" WAVE
INDEX 01 00:00:00
FILE "08. Op.18 n°6 in B flat - IV La Malincolia. Adagio. Allegretto quasi allegro. Adagio. Allegretto. Poco adagio. Prestissimo.wav" WAVE
TRACK 08 AUDIO
TITLE "Op.18 n°6 in B flat - IV La Malincolia. Adagio. Allegretto quasi allegro. Ada..."
PERFORMER "Ludwig van Beethoven / Quartetto Italiano"
ISRC NLA507300512
INDEX 01 00:00:00

Disk 4

REM GENRE Classical
REM DATE 1974
REM DISCID 21097F04
REM COMMENT "ExactAudioCopy v1.0b3"
CATALOG 0028945406626
PERFORMER "Ludwig van Beethoven / Quartetto Italiano"
TITLE "Complete String Quartets Disk 4 of 10 (59.1)"
FILE "01. Op.59 n°1 in F - I. Allegro.wav" WAVE
TRACK 01 AUDIO
TITLE "Op.59 n°1 in F - I. Allegro"
PERFORMER "Ludwig van Beethoven / Quartetto Italiano"
ISRC NLA507401012
PREGAP 00:00:33
INDEX 01 00:00:00
TRACK 02 AUDIO
TITLE "Op.59 n°1 in F - II. Allegretto vivace e sempre scherzando"
PERFORMER "Ludwig van Beethoven / Quartetto Italiano"
ISRC NLA507401013
INDEX 00 11:36:00
FILE "02. Op.59 n°1 in F - II. Allegretto vivace e sempre scherzando.wav" WAVE
INDEX 01 00:00:00
TRACK 03 AUDIO
TITLE "Op.59 n°1 in F - III. Adagio molto e mesto"
PERFORMER "Ludwig van Beethoven / Quartetto Italiano"
ISRC NLA507401014
INDEX 00 08:58:00
FILE "03. Op.59 n°1 in F - III. Adagio molto e mesto.wav" WAVE
INDEX 01 00:00:00
FILE "04. Op.59 n°1 in F - IV. Thème russe. Allegro.wav" WAVE
TRACK 04 AUDIO
TITLE "Op.59 n°1 in F - IV. Thème russe. Allegro"
PERFORMER "Ludwig van Beethoven / Quartetto Italiano"
ISRC NLA507401015
INDEX 01 00:00:00

Disk 5

REM GENRE Classical
REM DATE 1972
REM DISCID 6D0DE908
REM COMMENT "ExactAudioCopy v1.0b3"
CATALOG 0028945406725
PERFORMER "Ludwig van Beethoven / Quartetto Italiano"
TITLE "Complete String Quartets Disk 5 of 10 (59.2, 95)"
FILE "01. Op.59 n°2 in e - I Allegro.wav" WAVE
TRACK 01 AUDIO
TITLE "Op.59 n°2 in e - I Allegro"
PERFORMER "Ludwig van Beethoven / Quartetto Italiano"
ISRC NLA507401016
PREGAP 00:00:33
INDEX 01 00:00:00
TRACK 02 AUDIO
TITLE "Op.59 n°2 in e - II Molto adagio"
PERFORMER "Ludwig van Beethoven / Quartetto Italiano"
ISRC NLA507300992
INDEX 00 10:23:00
FILE "02. Op.59 n°2 in e - II Molto adagio.wav" WAVE
INDEX 01 00:00:00
TRACK 03 AUDIO
TITLE "Op.59 n°2 in e - III Allegretto"
PERFORMER "Ludwig van Beethoven / Quartetto Italiano"
ISRC NLA507300993
INDEX 00 14:22:00
FILE "03. Op.59 n°2 in e - III Allegretto.wav" WAVE
INDEX 01 00:00:00
TRACK 04 AUDIO
TITLE "Op.59 n°2 in e - IV Finale. Presto"
PERFORMER "Ludwig van Beethoven / Quartetto Italiano"
ISRC NLA507300994
INDEX 00 08:06:00
FILE "04. Op.59 n°2 in e - IV Finale. Presto.wav" WAVE
INDEX 01 00:00:00
TRACK 05 AUDIO
TITLE "Op.95 in f 'Quartetto serioso'- I Allegro con brio"
PERFORMER "Ludwig van Beethoven / Quartetto Italiano"
ISRC NLA507100150
INDEX 00 05:39:00
FILE "05. Op.95 in f ''Quartetto serioso''- I Allegro con brio.wav" WAVE
INDEX 01 00:00:00
TRACK 06 AUDIO
TITLE "Op.95 in f 'Quartetto serioso'- II Allegretto ma non troppo"
PERFORMER "Ludwig van Beethoven / Quartetto Italiano"
ISRC NLA507100151
INDEX 00 04:21:00
FILE "06. Op.95 in f ''Quartetto serioso''- II Allegretto ma non troppo.wav" WAVE
INDEX 01 00:00:00
FILE "07. Op.95 in f ''Quartetto serioso''- III Allegro assai vivace ma serioso.wav" WAVE
TRACK 07 AUDIO
TITLE "Op.95 in f 'Quartetto serioso'- III Allegro assai vivace ma serioso"
PERFORMER "Ludwig van Beethoven / Quartetto Italiano"
ISRC NLA507100152
INDEX 01 00:00:00
TRACK 08 AUDIO
TITLE "Op.95 in f 'Quartetto serioso'- IV Larghetto espressivo - Allegretto agitato"
PERFORMER "Ludwig van Beethoven / Quartetto Italiano"
ISRC NLA507100153
INDEX 00 04:07:25
FILE "08. Op.95 in f ''Quartetto serioso''- IV Larghetto espressivo - Allegretto agitato.wav" WAVE
INDEX 01 00:00:00

Disk 6

REM GENRE "Classical;Chamber Music"
REM DATE 1974
REM DISCID 770F3908
REM COMMENT "ExactAudioCopy v1.0b3"
CATALOG 0028945406824
PERFORMER "Ludwig van Beethoven / Quartetto Italiano"
TITLE "Complete String Quartets Disk 6 of 10 (59.3, 74)"
FILE "01. Op.59 n°3 in C - I. Introduzione.wav" WAVE
TRACK 01 AUDIO
TITLE "Op.59 n°3 in C - I. Introduzione"
PERFORMER "Ludwig van Beethoven / Quartetto Italiano"
ISRC NLA507300995
PREGAP 00:00:33
INDEX 01 00:00:00
TRACK 02 AUDIO
TITLE "Op.59 n°3 in C - II. Andante con moto quasi allegretto"
PERFORMER "Ludwig van Beethoven / Quartetto Italiano"
ISRC NLA507300996
INDEX 00 10:39:00
FILE "02. Op.59 n°3 in C - II. Andante con moto quasi allegretto.wav" WAVE
INDEX 01 00:00:00
TRACK 03 AUDIO
TITLE "Op.59 n°3 in C - III. Menuetto. Grazioso"
PERFORMER "Ludwig van Beethoven / Quartetto Italiano"
ISRC NLA507300997
INDEX 00 09:59:00
FILE "03. Op.59 n°3 in C - III. Menuetto. Grazioso.wav" WAVE
INDEX 01 00:00:00
FILE "04. Op.59 n°3 in C - IV. Allegro molto.wav" WAVE
TRACK 04 AUDIO
TITLE "Op.59 n°3 in C - IV. Allegro molto"
PERFORMER "Ludwig van Beethoven / Quartetto Italiano"
ISRC NLA507300998
INDEX 01 00:00:00
TRACK 05 AUDIO
TITLE "Op. 74 in E flat 'Harp' - I. Poco adagio. Allegro"
PERFORMER "Ludwig van Beethoven / Quartetto Italiano"
ISRC NLA507100146
INDEX 00 06:20:00
FILE "05. Op. 74 in E flat ''Harp'' - I. Poco adagio. Allegro.wav" WAVE
INDEX 01 00:00:00
TRACK 06 AUDIO
TITLE "Op. 74 in E flat 'Harp' - II. Adagio ma non troppo"
PERFORMER "Ludwig van Beethoven / Quartetto Italiano"
ISRC NLA507100147
INDEX 00 10:17:00
FILE "06. Op. 74 in E flat ''Harp'' - II. Adagio ma non troppo.wav" WAVE
INDEX 01 00:00:00
TRACK 07 AUDIO
TITLE "Op. 74 in E flat 'Harp' - III. Presto"
PERFORMER "Ludwig van Beethoven / Quartetto Italiano"
ISRC NLA507100148
INDEX 00 10:07:00
FILE "07. Op. 74 in E flat ''Harp'' - III. Presto.wav" WAVE
INDEX 01 00:00:00
FILE "08. Op. 74 in E flat ''Harp'' - IV. Allegretto con variazioni.wav" WAVE
TRACK 08 AUDIO
TITLE "Op. 74 in E flat 'Harp' - IV. Allegretto con variazioni"
PERFORMER "Ludwig van Beethoven / Quartetto Italiano"
ISRC NLA507100149
INDEX 01 00:00:00

Disk 7

REM GENRE "Chamber Music"
REM DATE 1968
REM DISCID 640EED08
REM COMMENT "ExactAudioCopy v1.0b3"
CATALOG 0028945406923
PERFORMER "Ludwig van Beethoven / Quartetto Italiano"
TITLE "Complete String Quartets Disk 7 of 10 (127, 135)"
FILE "01. Op. 127 in E flat - I. Maestoso. Allegro.wav" WAVE
TRACK 01 AUDIO
TITLE "Op. 127 in E flat - I. Maestoso. Allegro"
PERFORMER "Ludwig van Beethoven / Quartetto Italiano"
ISRC NLA506800447
PREGAP 00:00:33
INDEX 01 00:00:00
TRACK 02 AUDIO
TITLE "Op. 127 in E flat - II. Adagio ma non troppo e molto cantabile"
PERFORMER "Ludwig van Beethoven / Quartetto Italiano"
ISRC NLA506800448
INDEX 00 06:57:00
FILE "02. Op. 127 in E flat - II. Adagio ma non troppo e molto cantabile.wav" WAVE
INDEX 01 00:00:00
TRACK 03 AUDIO
TITLE "Op. 127 in E flat - III. Scherzando vivace"
PERFORMER "Ludwig van Beethoven / Quartetto Italiano"
ISRC NLA506800449
INDEX 00 15:24:00
FILE "03. Op. 127 in E flat - III. Scherzando vivace.wav" WAVE
INDEX 01 00:00:00
TRACK 04 AUDIO
TITLE "Op. 127 in E flat - IV. Finale"
PERFORMER "Ludwig van Beethoven / Quartetto Italiano"
ISRC NLA506800450
INDEX 00 08:36:00
FILE "04. Op. 127 in E flat - IV. Finale.wav" WAVE
INDEX 01 00:00:00
TRACK 05 AUDIO
TITLE "Op. 135 in F - I. Allegretto"
PERFORMER "Ludwig van Beethoven / Quartetto Italiano"
ISRC NLA506800451
INDEX 00 07:04:00
FILE "05. Op. 135 in F - I. Allegretto.wav" WAVE
INDEX 01 00:00:00
TRACK 06 AUDIO
TITLE "Op. 135 in F - II. Vivace"
PERFORMER "Ludwig van Beethoven / Quartetto Italiano"
ISRC NLA506800452
INDEX 00 06:21:00
FILE "06. Op. 135 in F - II. Vivace.wav" WAVE
INDEX 01 00:00:00
TRACK 07 AUDIO
TITLE "Op. 135 in F - III. Lento assai, cantante e tranquillo"
PERFORMER "Ludwig van Beethoven / Quartetto Italiano"
ISRC NLA506800453
INDEX 00 04:01:00
FILE "07. Op. 135 in F - III. Lento assai, cantante e tranquillo.wav" WAVE
INDEX 01 00:00:00
TRACK 08 AUDIO
TITLE "Op. 135 in F - IV. Der schwer gefasste Entschluss. Grave. Allegro. Grave ma n..."
PERFORMER "Ludwig van Beethoven / Quartetto Italiano"
ISRC NLA506800454
INDEX 00 07:10:00
FILE "08. Op. 135 in F - IV. Der schwer gefasste Entschluss. Grave. Allegro. Grave ma non troppo tratto. Allegro.wav" WAVE
INDEX 01 00:00:00

Disk 8

REM GENRE "Chamber Music"
REM DATE 1973
REM DISCID 5D0E8807
REM COMMENT "ExactAudioCopy v1.0b3"
CATALOG 0028945407029
PERFORMER "Ludwig van Beethoven / Quartetto Italiano"
TITLE "Complete String Quartets Disk 8 of 10 (130, Grosse Fuge 133)"
FILE "01. Op.130 in B flat - I. Adagio ma non troppo. Allegro.wav" WAVE
TRACK 01 AUDIO
TITLE "Op.130 in B flat - I. Adagio ma non troppo. Allegro"
PERFORMER "Ludwig van Beethoven / Quartetto Italiano"
ISRC NLA506900838
PREGAP 00:00:33
INDEX 01 00:00:00
TRACK 02 AUDIO
TITLE "Op.130 in B flat - II. Presto"
PERFORMER "Ludwig van Beethoven / Quartetto Italiano"
ISRC NLA506900839
INDEX 00 13:56:00
FILE "02. Op.130 in B flat - II. Presto.wav" WAVE
INDEX 01 00:00:00
TRACK 03 AUDIO
TITLE "Op.130 in B flat - III. Andante con moto ma non troppo. Poco scherzando"
PERFORMER "Ludwig van Beethoven / Quartetto Italiano"
ISRC NLA506900840
INDEX 00 02:07:00
FILE "03. Op.130 in B flat - III. Andante con moto ma non troppo. Poco scherzando.wav" WAVE
INDEX 01 00:00:00
TRACK 04 AUDIO
TITLE "Op.130 in B flat - IV. Alla danza tedesca. Allegro assai"
PERFORMER "Ludwig van Beethoven / Quartetto Italiano"
ISRC NLA506900841
INDEX 00 07:09:00
FILE "04. Op.130 in B flat - IV. Alla danza tedesca. Allegro assai.wav" WAVE
INDEX 01 00:00:00
TRACK 05 AUDIO
TITLE "Op.130 in B flat - V. Cavatina. Adagio molto espressivo"
PERFORMER "Ludwig van Beethoven / Quartetto Italiano"
ISRC NLA506900842
INDEX 00 03:11:00
FILE "05. Op.130 in B flat - V. Cavatina. Adagio molto espressivo.wav" WAVE
INDEX 01 00:00:00
TRACK 06 AUDIO
TITLE "Op.130 in B flat - VI. Finale. Allegro"
PERFORMER "Ludwig van Beethoven / Quartetto Italiano"
ISRC NLA506900843
INDEX 00 07:08:00
FILE "06. Op.130 in B flat - VI. Finale. Allegro.wav" WAVE
INDEX 01 00:00:00
TRACK 07 AUDIO
TITLE "Op.133 Grosse Fuge in B flat - Overtura. Allegro. Meno mosso e moderato. All..."
PERFORMER "Ludwig van Beethoven / Quartetto Italiano"
ISRC NLA506900844
INDEX 00 09:13:00
FILE "07. Op.133 Grosse Fuge in B flat - Overtura. Allegro. Meno mosso e moderato. Allegro. Fuga.wav" WAVE
INDEX 01 00:00:00

Disk 9

REM GENRE "Chamber Music"
REM DATE 1969
REM DISCID 6909EE07
REM COMMENT "ExactAudioCopy v1.0b3"
CATALOG 0028945407128
PERFORMER "Ludwig van Beethoven / Quartetto Italiano"
TITLE "Complete String Quartets Disk 9 of 10 (131)"
FILE "01. Op.131 in c sharp - I. Adagio ma non troppo e molto espressivo.wav" WAVE
TRACK 01 AUDIO
TITLE "Op.131 in c sharp - I. Adagio ma non troppo e molto espressivo"
PERFORMER "Ludwig van Beethoven / Quartetto Italiano"
ISRC NLA506900690
PREGAP 00:00:33
INDEX 01 00:00:00
FILE "02. Op.131 in c sharp - II. Allegro molto vivace.wav" WAVE
TRACK 02 AUDIO
TITLE "Op.131 in c sharp - II. Allegro molto vivace"
PERFORMER "Ludwig van Beethoven / Quartetto Italiano"
ISRC NLA506900691
INDEX 01 00:00:00
FILE "03. Op.131 in c sharp - III. Allegro moderato.wav" WAVE
TRACK 03 AUDIO
TITLE "Op.131 in c sharp - III. Allegro moderato"
PERFORMER "Ludwig van Beethoven / Quartetto Italiano"
ISRC NLA506900692
INDEX 01 00:00:00
FILE "04. Op.131 in c sharp - IV. And. m-n-t. e molto cantabile. Più mosso. And. moderato e lusinghiero. Adag. Algrto. Adag.m-n-t e semplice. Algrto.wav" WAVE
TRACK 04 AUDIO
TITLE "Op.131 in c sharp - IV. Andante ma non troppo e molto cantabile. Più mosso. A..."
PERFORMER "Ludwig van Beethoven / Quartetto Italiano"
ISRC NLA506900693
INDEX 01 00:00:00
TRACK 05 AUDIO
TITLE "Op.131 in c sharp - V. Presto"
PERFORMER "Ludwig van Beethoven / Quartetto Italiano"
ISRC NLA506900694
INDEX 00 14:34:50
FILE "05. Op.131 in c sharp - V. Presto.wav" WAVE
INDEX 01 00:00:00
FILE "06. Op.131 in c sharp - VI. Adagio quasi un poco andante.wav" WAVE
TRACK 06 AUDIO
TITLE "Op.131 in c sharp - VI. Adagio quasi un poco andante"
PERFORMER "Ludwig van Beethoven / Quartetto Italiano"
ISRC NLA506900695
INDEX 01 00:00:00
FILE "07. Op.131 in c sharp - VII. Allegro.wav" WAVE
TRACK 07 AUDIO
TITLE "Op.131 in c sharp - VII. Allegro"
PERFORMER "Ludwig van Beethoven / Quartetto Italiano"
ISRC NLA506900696
INDEX 01 00:00:00

Disk 10

REM GENRE Classical
REM DATE 1967
REM DISCID 310B0E05
REM COMMENT "ExactAudioCopy v1.0b3"
CATALOG 0028945407227
PERFORMER "Ludwig van Beethoven / Quartetto Italiano"
TITLE "Complete String Quartets Disk 10 of 10 (132)"
FILE "01. Op. 132 in a - I. Allegro sostenuto. Allegro.wav" WAVE
TRACK 01 AUDIO
TITLE "Op. 132 in a - I. Allegro sostenuto. Allegro"
PERFORMER "Ludwig van Beethoven / Quartetto Italiano"
ISRC NLA506700414
PREGAP 00:00:33
INDEX 01 00:00:00
TRACK 02 AUDIO
TITLE "Op. 132 in a - II. Allegro ma non tanto"
PERFORMER "Ludwig van Beethoven / Quartetto Italiano"
ISRC NLA506700415
INDEX 00 10:00:00
FILE "02. Op. 132 in a - II. Allegro ma non tanto.wav" WAVE
INDEX 01 00:00:00
TRACK 03 AUDIO
TITLE "Op. 132 in a - III. Canzona di ringraziamento. Molto adagio. Sentendo nuova f..."
PERFORMER "Ludwig van Beethoven / Quartetto Italiano"
ISRC NLA506700416
INDEX 00 08:19:00
FILE "03. Op. 132 in a - III. Canzona di ringraziamento. Molto adagio. Sentendo nuova forza. Andante.wav" WAVE
INDEX 01 00:00:00
TRACK 04 AUDIO
TITLE "Op. 132 in a - IV. Alla marcia, assai vivace. Più allegro. Presto"
PERFORMER "Ludwig van Beethoven / Quartetto Italiano"
ISRC NLA506700417
INDEX 00 19:30:00
FILE "04. Op. 132 in a - IV. Alla marcia, assai vivace. Più allegro. Presto.wav" WAVE
INDEX 01 00:00:00
FILE "05. Op. 132 in a - V. Allegro appassionato.wav" WAVE
TRACK 05 AUDIO
TITLE "Op. 132 in a - V. Allegro appassionato"
PERFORMER "Ludwig van Beethoven / Quartetto Italiano"
ISRC NLA506700418
INDEX 01 00:00:00



Показать сообщения:    

Текущее время: 03-Дек 01:19

Часовой пояс: UTC + 3


Вы не можете начинать темы
Вы не можете отвечать на сообщения
Вы не можете редактировать свои сообщения
Вы не можете удалять свои сообщения
Вы не можете голосовать в опросах
Вы не можете прикреплять файлы к сообщениям
Вы не можете скачивать файлы