Никола Тесла. Провидец современной эры / Никола Тесла. Виденье современного мира / Nikola Tesla - Visionary of Modern Times (Михаэль Краузе / Michael Krause) [2012, документально-игровой, биографический, DVB] DVO (Ред Медиа)


Статистика раздачи [Обновить пиров]
Размер:  914 MB   |    Зарегистрирован:  8 месяцев 14 дней   |    Скачан:  0 раз

Полного источника не было: Никогда

 
   
 
 
 

[Цитировать]

Никола Тесла. Провидец современной эры
Nikola Tesla - Visionary of Modern Times- Дата/Год выпуска: 2012
Страна: Германия
Жанр: документально-игровой, биографический
Продолжительность: 00:51:09
Перевод: Профессиональный (двухголосый закадровый)
Доп. инфо о переводе: ТПО "Ред Медиа"
Русские субтитры: нет
Режиссер: Михаэль Краузе / Michael Krause
Телеканал: 365 днейВ ролях: Майк Мария / Mike Maria (Nikola Tesla), Роберт Лайонс / Robert Lyons (narrator)
Описание: Никола Тесла - гениальный физик, инженер, сочинитель в раздела электротехники и радиотехники. Он вполне серьезно утверждал, что может расколоть Землю, нужен только подходящий вибратор и точный расчет времени...
Доп. информация: DVB-S. В отличие от имеющейся на трекере раздачи с DVO (канал "Кто есть кто") – здесь другой перевод DVO (ТПО "Ред Медиа").

качество: DVB
формат: MKV
Видео: MPEG Video 2, 720x576@768x576 (4:3), 25 fps, ~2256 kbps avg, 0.218 bit/pixel
Аудио: MPEG Audio 2, 2 ch, 48 kHz, ~192.00 kbps avg

MediaInfo

Общее
Уникальный идентификатор : 222649129259662274049560032299958345505 (0xA780A99A789DAD51B90BE3F57D271F21)
Полное имя : E:\My Torrents 2\[apreder]Nikola_Tesla_Visionary_of_Modern_Times(2012)DVB.mkv
Формат : Matroska
Версия формата : Version 2
Размер файла : 914 Мбайт
Продолжительность : 51 м.
Режим общего битрейта : Переменный
Общий поток : 2498 Кбит/сек
Дата кодирования : UTC 2015-03-24 16:59:14
Программа кодирования : mkvmerge v7.7.0 ('Six Voices') 64bit built on Feb 28 2015 23:39:33
Библиотека кодирования : libebml v1.3.1 + libmatroska v1.4.2
Видео
Идентификатор : 1
Формат : MPEG Video
Версия формата : Version 2
Профиль формата : Main@Main
Параметр BVOP формата : Да
Параметр матрицы формата : Выборочная
Параметр GOP формата : Variable
Format_Settings_PictureStructure : Frame
Идентификатор кодека : V_MPEG2
Идентификатор кодека/Информация : MPEG 1 or 2 Video
Продолжительность : 51 м.
Вид битрейта : Переменный
Битрейт : 2256 Кбит/сек
Ширина : 720 пикселей
Высота : 576 пикселей
Соотношение сторон : 4:3
Режим частоты кадров : Постоянный
Частота кадров : 25,000 кадров/сек
Стандарт вещания : PAL
Цветовое пространство : YUV
Субдискретизация насыщенности : 4:2:0
Битовая глубина : 8 бит
Тип развёртки : Чересстрочная
Порядок развёртки : Верхнее поле первое
Метод сжатия : С потерями
Бит/(Пиксели*Кадры) : 0.218
Временной код первого кадра : 00:00:00:00
Оригинал временного кода : Group of pictures header
Размер потока : 826 Мбайт (90%)
Default : Да
Forced : Нет
Gop_OpenClosed_FirstFrame : Closed
Аудио
Идентификатор : 2
Формат : MPEG Audio
Версия формата : Version 1
Профиль формата : Layer 2
Идентификатор кодека : A_MPEG/L2
Идентификатор кодека/Подсказка : MP2
Продолжительность : 51 м.
Вид битрейта : Постоянный
Битрейт : 192 Кбит/сек
Каналы : 2 канала
Частота : 48,0 КГц
Метод сжатия : С потерями
Размер потока : 70,3 Мбайт (8%)
Язык : Russian
Default : Да
Forced : Нет

Скриншоты


Резервные скриншоты


-[2'178]
[teatrix.ru].t20729.torrent 
Торрент: Зарегистрирован [ 2016-03-20 00:36 ] · 46913A7C71D299B6952F639F8235EC4053E0B1DD

Скачать .torrent

Скачать

18 KB

Статус: проверено
Скачан: 0 раз
Размер: 914 MB
terms.php



Быстрый ответ

Имя:

      
Для отправки сообщений необходимо включить JavaScript
Показать сообщения:    

Текущее время: 03-Дек 16:44

Часовой пояс: UTC + 3


Вы можете начинать темы
Вы можете отвечать на сообщения
Вы не можете редактировать свои сообщения
Вы не можете удалять свои сообщения
Вы не можете голосовать в опросах
Вы не можете прикреплять файлы к сообщениям
Вы можете скачивать файлы