(Opera) Giuseppe Verdi - Don Carlos (Oper mit einem Vorspiel und 4 Akten) - Josef Greindl, Dietrich Fischer-Dieskau, Boris Greverus, cond. Ferenc Fricsay, 4 CDs - 2013, FLAC (tracks+.cue) lossless


 

[Цитировать]

(Opera) Giuseppe Verdi - Don Carlos (Oper mit einem Vorspiel und 4 Akten) - Josef Greindl, Dietrich Fischer-Dieskau, Boris Greverus, Dir. Ferenc Fricsay, Chor und Orchester der Städtischen Oper Berlin
Жанр: Opera
Страна-производитель диска: Germany
Год издания диска: 2013
Издатель (лейбл): ZYX Music
Номер по каталогу: CLA 10158-2
Дата записи: 1948
Аудиокодек: FLAC
Тип рипа: tracks+.cue
Битрейт аудио: lossless
Продолжительность: 3:02:00
Источник: собственный рип
Наличие сканов в содержимом раздачи: да
Треклист:

Disk 1 • Vorspiel; Akt I

CD1 (TEIL 1) VORSPIEL:
1. Der Hörner Schall verklingt (3:46)
2. Aus Madrid kommet ihr? (4:29)
3. Alles um uns scheint mir verzaubert (2:15)
4. Was gibt's? (6:05)
ERSTER AKT:
5. Alles Menschenwerk vergehet (5:40)
6. Der Welt entsag ich (1:39)
7. Nie werd ich den Tag vergessen. (1:41)
8. Er ist's, Carlos, mein Prinz (4:04)
9. Gott, der Entflammte der Liebe (2:50)
10. Wie so lieblich ist's (2:02)
11. In dem stillen Haine (2:36)
12. Die Königin! (2:02)
13. Erzählt uns jetzt von Frankreichs Hofe (2:04)
14. Traurig, verzweifelt fand ich Carlos (3:01)

Disk 2 • Akt I (Ende); Akt II

CD2 (TEIL 2) ERSTER AKT (ENDE):
1. Ich komm, um zu erzählen (8:03)
2. So allein seid Ihr, Madame? (1:40)
3. O weine nicht, Gespielin (3:13)
4. Marchese Posa! (2:55)
5. Vernehmt, ich komme von Flandern (3:22)
6. Es ist nicht Frieden (3:14)
7. Ihr standet lange vor Eurem König (4.23)
ZWEITER AKT:
8. Blumenduft, Lichtglanz der Sterne (2:30)
9. Eboli, hört! Ich bin des Festestrubel , (3:42)
10. Orchesterzwischenspiel (3:03)

Disk 3 • Akt II (Finale); Akt III

CD3 (TEIL 3) ZWEITER AKT (Finale)
1. Um Mitternacht, in den Gärten (4:29)
2. Was sprach er? (5:04)
3. Der festliche Tag ist erschienen (5:53)
4. Als aufs Haupt ich mir setzte die Krone (1:02)
5. Wie, Carlos? 0 Gott! (4:30)
6. Sire, meine Zeit ist gekommen (6:14)
DRITTER AKT:
7. Orchestereinleitung (3:21)
8. Sie hat mich nie geliebt! (8:57)
9. Der Großinquisitor! (4:05) 10. Noch ward Spanien nie durch Ketzerei (6:17)

Disk 4 • Akt III (Finale); Akt IV

CD4 (TEIL 4)
DRITTER AKT (Finale):
1. Gerechtigkeit, mein König (2:36)
2. Habt ihr vergessen (2:47)
3. Verflucht sei der Argwohn (4:08)
4. 0 hört! Erbarmt Euch meiner! (3:45)
5. Verhängnisvoll war das Geschenk. (5:10)
6. Ich bin's, mein Carlos (3:37)
7. Bald wird uns die Stunde schlagen (2.43)
8. Weshalb sprichst du vom Sterben? (1:48)
9. Mein Carlos, noch eines (2:43)
10. Mein Sohn, nimm dein Schwert (3:51)
VIERTER AKT:
11. Orchestereinleitung (3:00)
12. Du, im irdischen Wahn (8:16)
13. Elisabeth! (4:09)
14. Wiedersehen wird uns werden (2:36)
15. Ja, für immer! (1:19)

Исполнители:
JOSEF GREINDL (Philipp ll/Bass)
BORIS GREVERUS (Don Carlos/Tenor)
DIETRICH FISCHER-DIESKAU (Rodrigo, Marchese di Posa/Bariton)
JOSEF HERRMANN (Großinquisitor/Bass)
HANS HOFMANN (Mönch/Bass)
IRMA DEMUTH (Elisabeth von Valois/Sopran)
JOHANNA BLATTER (Prinzessin Eboli/Mezzo)
ELISABETH HUFNAGEL (Tebaldo/Sopran)
GEORG GERHARDT (Graf von Lerma/Tenor)
ELFRIEDE HINGST (Engelsstimme/Sopran) u.v.a.
Chor und Orchester der Städtischen Oper Berlin
Dirigent / Conductor: FERENC FRICSAY

Выходные данные записи

Gesamtaufnahme mit dem Chor und Orchester der Städtischen Oper Berlin, 1948, ca. 182 Min.
Complete recording, Choir and Orchestra of the City Opera Berlin, 1948, Running time appr. 182 min.
CLA 10158-2 austromechana® 2013 ZYX Music
Редкая запись "Дона Карлоса", любопытная многим: во-первых, это исполнение на немецком языке (в необычном переводе - те немецкие переводы, что находятся в интернете, совершенно не совпадают с тем, что поют на этой записи; либретто к изданию не приложено, а текст со звука мне снимать было лень); во-вторых, это дебют Дитриха Фишера-Дискау на оперной сцене (дирижер этой постановки, Ференц Фричай, так тогда про него сказал: "вот уж не ожидал найти в Берлине итальянского баритона"); в-третьих, Филиппа II блестяще исполняет знаменитый своими Гурнеманцами и Фафнерами-Хундингами-Хагенами немецкий бас Йозеф Грайндль; ну и в четвертых, сделана она в 1948 году в Берлине (какие события происходили в этом городе за три года до того и в каком состоянии он в этой связи пребывал, едва ли нужно напоминать - а вот же, оперу играли). В раздачу включены сканы дисков и коробки (и "буклета", которого считай что нет - две странички со списком треков).
Версия оперы - в меру "полная", т.е. мы имеем пролог в Фонтенбло (но без вступительного хора) и часто вырезаемый эпизод с крошечным диалогом Елизаветы и Эболи, из которого понятно, почему именно последняя отправилась в сад встречаться с Карлосом, но не имеем ламентаций Филиппа по поводу гибели Родриго и финального повтора "песенки" монахов (как в знаменитой ну-почти-совсем-полной-то-есть-только-без-балета версии Аббадо из Ла Скалы, которая есть тут (аудио) и тут (видео - стоит того, рекомендую!), а там глядишь я и третью выложу, где вместо Брузона Каппуччилли, вместо Прайс Френи, вместо Нестеренко-Филиппа Филипп-Гяуров, а вместо Рони-Великого инквизитора как раз Нестеренко). И вроде какие-то еще минимальные купюры есть, надо внимательнее слушать.

Лог создания рипаDisk 1

Exact Audio Copy V1.0 beta 3 from 29. August 2011
Отчёт EAC об извлечении, выполненном 24. февраля 2015, 12:14
Verdi / Greindl, DFD, Greverus, Fricsay / Don Carlos (auf Deutsch) Disk 1 of 4
Дисковод: MATSHITABD-MLT UJ240ES Adapter: 2 ID: 0
Режим чтения : Достоверность
Использование точного потока : Да
Отключение кэша аудио : Да
Использование указателей C2 : Нет
Коррекция смещения при чтении : 103
Способность читать области Lead-in и Lead-out : Нет
Заполнение пропущенных сэмплов тишиной : Да
Удаление блоков с тишиной в начале и конце : Нет
При вычислениях CRC использовались нулевые сэмплы : Да
Интерфейс : Встроенный Win32-интерфейс для Win NT/2000
Обработка зазоров : Добавлено к предыдущему треку
Выходной формат : Пользовательский кодировщик
Выбранный битрейт : 1024 kBit/s
Качество : Высокий
Добавление ID3-тега : Нет
Утилита сжатия : C:\Program Files (x86)\Exact Audio Copy\Flac\flac.exe
Дополнительные параметры : -V -8 -T "Genre=%genre%" -T "Artist=%artist%" -T "Title=%title%" -T "Album=%albumtitle%" -T "Date=%year%" -T "Tracknumber=%tracknr%" -T "Comment=%comment%" %source%
TOC извлечённого CD
Трек | Старт | Длительность | Начальный сектор | Конечный сектор
---------------------------------------------------------------------
1 | 0:00.00 | 3:46.22 | 0 | 16971
2 | 3:46.22 | 4:29.32 | 16972 | 37178
3 | 8:15.54 | 2:14.64 | 37179 | 47292
4 | 10:30.43 | 6:05.30 | 47293 | 74697
5 | 16:35.73 | 5:39.72 | 74698 | 100194
6 | 22:15.70 | 1:38.12 | 100195 | 107556
7 | 23:54.07 | 1:40.74 | 107557 | 115130
8 | 25:35.06 | 4:04.19 | 115131 | 133449
9 | 29:39.25 | 2:50.31 | 133450 | 146230
10 | 32:29.56 | 2:02.03 | 146231 | 155383
11 | 34:31.59 | 2:35.02 | 155384 | 167010
12 | 37:06.61 | 2:02.61 | 167011 | 176221
13 | 39:09.47 | 2:04.11 | 176222 | 185532
14 | 41:13.58 | 3:00.31 | 185533 | 199063
Трек 1
Имя файла C:\Users\Nornore\Documents\EAC rips\VerdiCarlosGreindlFricsay\Disk 1\01. Vorspiel- Der Hörner Schall verklingt.wav
Длина предзазора 0:00:02.00
Пиковый уровень 75.4 %
Скорость извлечения 2.5 X
Качество трека 100.0 %
CRC теста EC1577F0
CRC копии EC1577F0
Трек не обнаружен в базе AccurateRip
Копирование... OK
Трек 2
Имя файла C:\Users\Nornore\Documents\EAC rips\VerdiCarlosGreindlFricsay\Disk 1\02. Vorspiel- Aus Madrid kommet ihr.wav
Пиковый уровень 97.0 %
Скорость извлечения 2.9 X
Качество трека 100.0 %
CRC теста 365D3E5D
CRC копии 365D3E5D
Трек не обнаружен в базе AccurateRip
Копирование... OK
Трек 3
Имя файла C:\Users\Nornore\Documents\EAC rips\VerdiCarlosGreindlFricsay\Disk 1\03. Vorspiel- Alles um uns scheint mir verzaubert.wav
Пиковый уровень 68.5 %
Скорость извлечения 2.8 X
Качество трека 100.0 %
CRC теста 3CC32428
CRC копии 3CC32428
Трек не обнаружен в базе AccurateRip
Копирование... OK
Трек 4
Имя файла C:\Users\Nornore\Documents\EAC rips\VerdiCarlosGreindlFricsay\Disk 1\04. Vorspiel- Was gibt es.wav
Пиковый уровень 96.0 %
Скорость извлечения 3.4 X
Качество трека 100.0 %
CRC теста F69865BC
CRC копии F69865BC
Трек не обнаружен в базе AccurateRip
Копирование... OK
Трек 5
Имя файла C:\Users\Nornore\Documents\EAC rips\VerdiCarlosGreindlFricsay\Disk 1\05. Erster Akt- Alles Menschenwerk vergehet.wav
Пиковый уровень 74.9 %
Скорость извлечения 3.4 X
Качество трека 99.9 %
CRC теста E86312A3
CRC копии E86312A3
Трек не обнаружен в базе AccurateRip
Копирование... OK
Трек 6
Имя файла C:\Users\Nornore\Documents\EAC rips\VerdiCarlosGreindlFricsay\Disk 1\06. Erster Akt- Der Welt entsag ich.wav
Пиковый уровень 85.2 %
Скорость извлечения 3.2 X
Качество трека 100.0 %
CRC теста C01411A7
CRC копии C01411A7
Трек не обнаружен в базе AccurateRip
Копирование... OK
Трек 7
Имя файла C:\Users\Nornore\Documents\EAC rips\VerdiCarlosGreindlFricsay\Disk 1\07. Erster Akt- Nie werd ich den Tag vergessen.wav
Пиковый уровень 56.3 %
Скорость извлечения 3.2 X
Качество трека 100.0 %
CRC теста FE5404A3
CRC копии FE5404A3
Трек не обнаружен в базе AccurateRip
Копирование... OK
Трек 8
Имя файла C:\Users\Nornore\Documents\EAC rips\VerdiCarlosGreindlFricsay\Disk 1\08. Erster Akt- Er ist es, Carlos, mein Prinz.wav
Пиковый уровень 95.8 %
Скорость извлечения 4.0 X
Качество трека 100.0 %
CRC теста CB8E37C4
CRC копии CB8E37C4
Трек не обнаружен в базе AccurateRip
Копирование... OK
Трек 9
Имя файла C:\Users\Nornore\Documents\EAC rips\VerdiCarlosGreindlFricsay\Disk 1\09. Erster Akt- Gott, der Entflammte der Liebe.wav
Пиковый уровень 88.0 %
Скорость извлечения 3.9 X
Качество трека 100.0 %
CRC теста 835DA211
CRC копии 835DA211
Трек не обнаружен в базе AccurateRip
Копирование... OK
Трек 10
Имя файла C:\Users\Nornore\Documents\EAC rips\VerdiCarlosGreindlFricsay\Disk 1\10. Erster Akt- Wie so lieblich ist es.wav
Пиковый уровень 75.9 %
Скорость извлечения 3.7 X
Качество трека 100.0 %
CRC теста 9F235D58
CRC копии 9F235D58
Трек не обнаружен в базе AccurateRip
Копирование... OK
Трек 11
Имя файла C:\Users\Nornore\Documents\EAC rips\VerdiCarlosGreindlFricsay\Disk 1\11. Erster Akt- In dem stillen Haine.wav
Пиковый уровень 76.9 %
Скорость извлечения 3.4 X
Качество трека 99.9 %
CRC теста B76AF3B3
CRC копии B76AF3B3
Трек не обнаружен в базе AccurateRip
Копирование... OK
Трек 12
Имя файла C:\Users\Nornore\Documents\EAC rips\VerdiCarlosGreindlFricsay\Disk 1\12. Erster Akt- Die Königin!.wav
Пиковый уровень 34.2 %
Скорость извлечения 3.2 X
Качество трека 99.9 %
CRC теста E3C2E3C1
CRC копии E3C2E3C1
Трек не обнаружен в базе AccurateRip
Копирование... OK
Трек 13
Имя файла C:\Users\Nornore\Documents\EAC rips\VerdiCarlosGreindlFricsay\Disk 1\13. Erster Akt- Erzählt uns jetzt von Frankreichs Hofe.wav
Пиковый уровень 58.8 %
Скорость извлечения 3.2 X
Качество трека 99.9 %
CRC теста 561B9A68
CRC копии 561B9A68
Трек не обнаружен в базе AccurateRip
Копирование... OK
Трек 14
Имя файла C:\Users\Nornore\Documents\EAC rips\VerdiCarlosGreindlFricsay\Disk 1\14. Erster Akt- Traurig, verzweifelt fand ich Carlos.wav
Пиковый уровень 61.2 %
Скорость извлечения 4.3 X
Качество трека 100.0 %
CRC теста 57AD9D51
CRC копии 57AD9D51
Трек не обнаружен в базе AccurateRip
Копирование... OK
Ни одного трека нет в базе AccurateRip
Ошибок не произошло
Конец отчёта
==== Контрольная сумма отчёта 0F7F29614B6BC1F4EDB36F32EC6192FAB2948CD5349B438356608198609F401C ====

Disk 2

Exact Audio Copy V1.0 beta 3 from 29. August 2011
Отчёт EAC об извлечении, выполненном 24. февраля 2015, 13:45
Verdi / Greindl, DFD, Greverus, Fricsay / Don Carlos (auf Deutsch) Disk 2 of 4
Дисковод: MATSHITABD-MLT UJ240ES Adapter: 2 ID: 0
Режим чтения : Достоверность
Использование точного потока : Да
Отключение кэша аудио : Да
Использование указателей C2 : Нет
Коррекция смещения при чтении : 103
Способность читать области Lead-in и Lead-out : Нет
Заполнение пропущенных сэмплов тишиной : Да
Удаление блоков с тишиной в начале и конце : Нет
При вычислениях CRC использовались нулевые сэмплы : Да
Интерфейс : Встроенный Win32-интерфейс для Win NT/2000
Обработка зазоров : Добавлено к предыдущему треку
Выходной формат : Пользовательский кодировщик
Выбранный битрейт : 1024 kBit/s
Качество : Высокий
Добавление ID3-тега : Нет
Утилита сжатия : C:\Program Files (x86)\Exact Audio Copy\Flac\flac.exe
Дополнительные параметры : -V -8 -T "Genre=%genre%" -T "Artist=%artist%" -T "Title=%title%" -T "Album=%albumtitle%" -T "Date=%year%" -T "Tracknumber=%tracknr%" -T "Comment=%comment%" %source%
TOC извлечённого CD
Трек | Старт | Длительность | Начальный сектор | Конечный сектор
---------------------------------------------------------------------
1 | 0:00.00 | 8:04.00 | 0 | 36299
2 | 8:04.00 | 1:39.62 | 36300 | 43786
3 | 9:43.62 | 3:12.28 | 43787 | 58214
4 | 12:56.15 | 2:54.61 | 58215 | 71325
5 | 15:51.01 | 3:21.36 | 71326 | 86436
6 | 19:12.37 | 3:14.70 | 86437 | 101056
7 | 22:27.32 | 4:23.37 | 101057 | 120818
8 | 26:50.69 | 2:30.10 | 120819 | 132078
9 | 29:21.04 | 3:40.39 | 132079 | 148617
10 | 33:01.43 | 3:04.17 | 148618 | 162434
Трек 1
Имя файла C:\Users\Nornore\Documents\EAC rips\VerdiCarlosGreindlFricsay\Disk 2\01. Erster Akt- Ich komm, um zu erzählen.wav
Длина предзазора 0:00:02.00
Пиковый уровень 70.8 %
Скорость извлечения 0.9 X
Качество трека 100.0 %
CRC теста 7ED7C8BD
CRC копии 7ED7C8BD
Трек не обнаружен в базе AccurateRip
Копирование... OK
Трек 2
Имя файла C:\Users\Nornore\Documents\EAC rips\VerdiCarlosGreindlFricsay\Disk 2\02. Erster Akt- So allein seid Ihr, Madame.wav
Пиковый уровень 65.8 %
Скорость извлечения 0.8 X
Качество трека 100.0 %
CRC теста F7671FD6
CRC копии F7671FD6
Трек не обнаружен в базе AccurateRip
Копирование... OK
Трек 3
Имя файла C:\Users\Nornore\Documents\EAC rips\VerdiCarlosGreindlFricsay\Disk 2\03. Erster Akt- O weine nicht, Gespielin.wav
Пиковый уровень 81.7 %
Скорость извлечения 0.9 X
Качество трека 100.0 %
CRC теста D4808B31
CRC копии D4808B31
Трек не обнаружен в базе AccurateRip
Копирование... OK
Трек 4
Имя файла C:\Users\Nornore\Documents\EAC rips\VerdiCarlosGreindlFricsay\Disk 2\04. Erster Akt- Marchese Posa!.wav
Пиковый уровень 55.2 %
Скорость извлечения 1.0 X
Качество трека 100.0 %
CRC теста 4767AD4F
CRC копии 4767AD4F
Трек не обнаружен в базе AccurateRip
Копирование... OK
Трек 5
Имя файла C:\Users\Nornore\Documents\EAC rips\VerdiCarlosGreindlFricsay\Disk 2\05. Erster Akt- Vernehmt, ich komme von Flandern.wav
Пиковый уровень 74.8 %
Скорость извлечения 0.9 X
Качество трека 99.9 %
CRC теста 4CB49324
CRC копии 4CB49324
Трек не обнаружен в базе AccurateRip
Копирование... OK
Трек 6
Имя файла C:\Users\Nornore\Documents\EAC rips\VerdiCarlosGreindlFricsay\Disk 2\06. Erster Akt- Es ist nicht Frieden.wav
Пиковый уровень 83.6 %
Скорость извлечения 1.1 X
Качество трека 100.0 %
CRC теста B9419E0B
CRC копии B9419E0B
Трек не обнаружен в базе AccurateRip
Копирование... OK
Трек 7
Имя файла C:\Users\Nornore\Documents\EAC rips\VerdiCarlosGreindlFricsay\Disk 2\07. Erster Akt- Ihr standet lange vor Eurem König.wav
Пиковый уровень 81.0 %
Скорость извлечения 1.2 X
Качество трека 100.0 %
CRC теста DC7988F3
CRC копии DC7988F3
Трек не обнаружен в базе AccurateRip
Копирование... OK
Трек 8
Имя файла C:\Users\Nornore\Documents\EAC rips\VerdiCarlosGreindlFricsay\Disk 2\08. Zweiter Akt- Blumenduft, Lichtglanz der Sterne.wav
Пиковый уровень 75.6 %
Скорость извлечения 1.1 X
Качество трека 100.0 %
CRC теста 36910A47
CRC копии 36910A47
Трек не обнаружен в базе AccurateRip
Копирование... OK
Трек 9
Имя файла C:\Users\Nornore\Documents\EAC rips\VerdiCarlosGreindlFricsay\Disk 2\09. Zweiter Akt- Eboli, hört! Ich bin des Festestrubel.wav
Пиковый уровень 58.4 %
Скорость извлечения 1.2 X
Качество трека 100.0 %
CRC теста 34D49D24
CRC копии 34D49D24
Трек не обнаружен в базе AccurateRip
Копирование... OK
Трек 10
Имя файла C:\Users\Nornore\Documents\EAC rips\VerdiCarlosGreindlFricsay\Disk 2\10. Zweiter Akt- Orchesterzwischenspiel.wav
Пиковый уровень 40.9 %
Скорость извлечения 1.2 X
Качество трека 100.0 %
CRC теста 540DA24E
CRC копии 540DA24E
Трек не обнаружен в базе AccurateRip
Копирование... OK
Ни одного трека нет в базе AccurateRip
Ошибок не произошло
Конец отчёта
==== Контрольная сумма отчёта 5DE8EDED9A0D54D84C4696EE687EC04E686D12441AA537837EE2187ADB4A1A6D ====

Disk 3

Exact Audio Copy V1.0 beta 3 from 29. August 2011
Отчёт EAC об извлечении, выполненном 24. февраля 2015, 15:57
Verdi / Greindl, DFD, Greverus, Fricsay / Don Carlos (auf Deutsch) Disk 3 of 4
Дисковод: MATSHITABD-MLT UJ240ES Adapter: 2 ID: 0
Режим чтения : Достоверность
Использование точного потока : Да
Отключение кэша аудио : Да
Использование указателей C2 : Нет
Коррекция смещения при чтении : 103
Способность читать области Lead-in и Lead-out : Нет
Заполнение пропущенных сэмплов тишиной : Да
Удаление блоков с тишиной в начале и конце : Нет
При вычислениях CRC использовались нулевые сэмплы : Да
Интерфейс : Встроенный Win32-интерфейс для Win NT/2000
Обработка зазоров : Добавлено к предыдущему треку
Выходной формат : Пользовательский кодировщик
Выбранный битрейт : 1024 kBit/s
Качество : Высокий
Добавление ID3-тега : Нет
Утилита сжатия : C:\Program Files (x86)\Exact Audio Copy\Flac\flac.exe
Дополнительные параметры : -V -8 -T "Genre=%genre%" -T "Artist=%artist%" -T "Title=%title%" -T "Album=%albumtitle%" -T "Date=%year%" -T "Tracknumber=%tracknr%" -T "Comment=%comment%" %source%
TOC извлечённого CD
Трек | Старт | Длительность | Начальный сектор | Конечный сектор
---------------------------------------------------------------------
1 | 0:00.00 | 4:29.69 | 0 | 20243
2 | 4:29.69 | 5:03.40 | 20244 | 43008
3 | 9:33.34 | 5:52.69 | 43009 | 69477
4 | 15:26.28 | 1:02.39 | 69478 | 74166
5 | 16:28.67 | 4:29.24 | 74167 | 94365
6 | 20:58.16 | 6:14.28 | 94366 | 122443
7 | 27:12.44 | 3:21.17 | 122444 | 137535
8 | 30:33.61 | 8:56.26 | 137536 | 177761
9 | 39:30.12 | 4:04.40 | 177762 | 196101
10 | 43:34.52 | 6:17.51 | 196102 | 224427
Трек 1
Имя файла C:\Users\Nornore\Documents\EAC rips\VerdiCarlosGreindlFricsay\Disk 3\01. Zweiter Akt- Um Mitternacht, in der Gärten.wav
Длина предзазора 0:00:02.00
Пиковый уровень 91.6 %
Скорость извлечения 0.7 X
Качество трека 99.9 %
CRC теста B9629B5E
CRC копии B9629B5E
Трек не обнаружен в базе AccurateRip
Копирование... OK
Трек 2
Имя файла C:\Users\Nornore\Documents\EAC rips\VerdiCarlosGreindlFricsay\Disk 3\02. Zweiter Akt- Was sprach er.wav
Пиковый уровень 97.6 %
Скорость извлечения 0.9 X
Качество трека 100.0 %
CRC теста 83148633
CRC копии 83148633
Трек не обнаружен в базе AccurateRip
Копирование... OK
Трек 3
Имя файла C:\Users\Nornore\Documents\EAC rips\VerdiCarlosGreindlFricsay\Disk 3\03. Zweiter Akt- Der festliche Tag ist erschienen.wav
Пиковый уровень 65.7 %
Скорость извлечения 0.9 X
Качество трека 99.9 %
CRC теста 4CC53066
CRC копии 4CC53066
Трек не обнаружен в базе AccurateRip
Копирование... OK
Трек 4
Имя файла C:\Users\Nornore\Documents\EAC rips\VerdiCarlosGreindlFricsay\Disk 3\04. Zweiter Akt- Als aufs Haupt ich mir setzte die Krone.wav
Пиковый уровень 51.1 %
Скорость извлечения 0.7 X
Качество трека 100.0 %
CRC теста E7E4BDAF
CRC копии E7E4BDAF
Трек не обнаружен в базе AccurateRip
Копирование... OK
Трек 5
Имя файла C:\Users\Nornore\Documents\EAC rips\VerdiCarlosGreindlFricsay\Disk 3\05. Zweiter Akt- Wie, Carlos O Gott!!!.wav
Пиковый уровень 62.5 %
Скорость извлечения 1.1 X
Качество трека 100.0 %
CRC теста 1B1296A6
CRC копии 1B1296A6
Трек не обнаружен в базе AccurateRip
Копирование... OK
Трек 6
Имя файла C:\Users\Nornore\Documents\EAC rips\VerdiCarlosGreindlFricsay\Disk 3\06. Zweiter Akt- Sire, meine Zeit ist gekommen.wav
Пиковый уровень 82.0 %
Скорость извлечения 1.2 X
Качество трека 100.0 %
CRC теста 54A79052
CRC копии 54A79052
Трек не обнаружен в базе AccurateRip
Копирование... OK
Трек 7
Имя файла C:\Users\Nornore\Documents\EAC rips\VerdiCarlosGreindlFricsay\Disk 3\07. Dritter Akt- Orchestereinleitung.wav
Пиковый уровень 22.0 %
Скорость извлечения 1.2 X
Качество трека 100.0 %
CRC теста 3589FDAA
CRC копии 3589FDAA
Трек не обнаружен в базе AccurateRip
Копирование... OK
Трек 8
Имя файла C:\Users\Nornore\Documents\EAC rips\VerdiCarlosGreindlFricsay\Disk 3\08. Dritter Akt- Sie hat mich nie geliebt!.wav
Пиковый уровень 62.2 %
Скорость извлечения 1.4 X
Качество трека 100.0 %
CRC теста F5F52429
CRC копии F5F52429
Трек не обнаружен в базе AccurateRip
Копирование... OK
Трек 9
Имя файла C:\Users\Nornore\Documents\EAC rips\VerdiCarlosGreindlFricsay\Disk 3\09. Dritter Akt- Der Grossinquisitor!.wav
Пиковый уровень 100.0 %
Скорость извлечения 1.4 X
Качество трека 100.0 %
CRC теста DF37C53C
CRC копии DF37C53C
Трек не обнаружен в базе AccurateRip
Копирование... OK
Трек 10
Имя файла C:\Users\Nornore\Documents\EAC rips\VerdiCarlosGreindlFricsay\Disk 3\10. Dritter Akt- Noch ward Spanien nie durch Ketzerei.wav
Пиковый уровень 84.1 %
Скорость извлечения 1.5 X
Качество трека 100.0 %
CRC теста 31B120C3
CRC копии 31B120C3
Трек не обнаружен в базе AccurateRip
Копирование... OK
Ни одного трека нет в базе AccurateRip
Ошибок не произошло
Конец отчёта
==== Контрольная сумма отчёта C07AA2E43D670BF90330CD193564F502C64D48CC2C28A2F0DB9B9B1370247078 ====

Disk 4

Exact Audio Copy V1.0 beta 3 from 29. August 2011
Отчёт EAC об извлечении, выполненном 24. февраля 2015, 18:23
Verdi / Greindl, DFD, Greverus, Fricsay / Don Carlos (auf Deutsch) Disk 4 of 4
Дисковод: MATSHITABD-MLT UJ240ES Adapter: 2 ID: 0
Режим чтения : Достоверность
Использование точного потока : Да
Отключение кэша аудио : Да
Использование указателей C2 : Нет
Коррекция смещения при чтении : 103
Способность читать области Lead-in и Lead-out : Нет
Заполнение пропущенных сэмплов тишиной : Да
Удаление блоков с тишиной в начале и конце : Нет
При вычислениях CRC использовались нулевые сэмплы : Да
Интерфейс : Встроенный Win32-интерфейс для Win NT/2000
Обработка зазоров : Добавлено к предыдущему треку
Выходной формат : Пользовательский кодировщик
Выбранный битрейт : 1024 kBit/s
Качество : Высокий
Добавление ID3-тега : Нет
Утилита сжатия : C:\Program Files (x86)\Exact Audio Copy\Flac\flac.exe
Дополнительные параметры : -V -8 -T "Genre=%genre%" -T "Artist=%artist%" -T "Title=%title%" -T "Album=%albumtitle%" -T "Date=%year%" -T "Tracknumber=%tracknr%" -T "Comment=%comment%" %source%
TOC извлечённого CD
Трек | Старт | Длительность | Начальный сектор | Конечный сектор
---------------------------------------------------------------------
1 | 0:00.00 | 2:36.52 | 0 | 11751
2 | 2:36.52 | 2:46.51 | 11752 | 24252
3 | 5:23.28 | 4:08.03 | 24253 | 42855
4 | 9:31.31 | 3:43.70 | 42856 | 59650
5 | 13:15.26 | 5:10.59 | 59651 | 82959
6 | 18:26.10 | 3:37.04 | 82960 | 99238
7 | 22:03.14 | 2:42.06 | 99239 | 111394
8 | 24:45.20 | 1:48.00 | 111395 | 119494
9 | 26:33.20 | 2:43.66 | 119495 | 131785
10 | 29:17.11 | 3:51.09 | 131786 | 149119
11 | 33:08.20 | 3:00.14 | 149120 | 162633
12 | 36:08.34 | 8:15.74 | 162634 | 199832
13 | 44:24.33 | 4:09.14 | 199833 | 218521
14 | 48:33.47 | 2:35.28 | 218522 | 230174
15 | 51:09.00 | 1:19.08 | 230175 | 236107
Трек 1
Имя файла C:\Users\Nornore\Documents\EAC rips\VerdiCarlosGreindlFricsay\Disk 4\01. Dritter Akt- Gerechtigkeit, mein König.wav
Длина предзазора 0:00:02.00
Пиковый уровень 78.8 %
Скорость извлечения 0.6 X
Качество трека 99.9 %
CRC теста C3BF195F
CRC копии C3BF195F
Трек не обнаружен в базе AccurateRip
Копирование... OK
Трек 2
Имя файла C:\Users\Nornore\Documents\EAC rips\VerdiCarlosGreindlFricsay\Disk 4\02. Dritter Akt- Habt ihr vergessen.wav
Пиковый уровень 89.0 %
Скорость извлечения 0.7 X
Качество трека 100.0 %
CRC теста E2823EE5
CRC копии E2823EE5
Трек не обнаружен в базе AccurateRip
Копирование... OK
Трек 3
Имя файла C:\Users\Nornore\Documents\EAC rips\VerdiCarlosGreindlFricsay\Disk 4\03. Dritter Akt- Verflucht sei der Argwohn.wav
Пиковый уровень 43.5 %
Скорость извлечения 0.9 X
Качество трека 100.0 %
CRC теста 4BAF0622
CRC копии 4BAF0622
Трек не обнаружен в базе AccurateRip
Копирование... OK
Трек 4
Имя файла C:\Users\Nornore\Documents\EAC rips\VerdiCarlosGreindlFricsay\Disk 4\04. Dritter Akt- O hört! Erbarm Euch meiner!.wav
Пиковый уровень 62.2 %
Скорость извлечения 0.9 X
Качество трека 100.0 %
CRC теста 52FF5899
CRC копии 52FF5899
Трек не обнаружен в базе AccurateRip
Копирование... OK
Трек 5
Имя файла C:\Users\Nornore\Documents\EAC rips\VerdiCarlosGreindlFricsay\Disk 4\05. Dritter Akt- Verhängnisvoll was das Geschenk.wav
Пиковый уровень 64.6 %
Скорость извлечения 1.0 X
Качество трека 100.0 %
CRC теста F620CCED
CRC копии F620CCED
Трек не обнаружен в базе AccurateRip
Копирование... OK
Трек 6
Имя файла C:\Users\Nornore\Documents\EAC rips\VerdiCarlosGreindlFricsay\Disk 4\06. Dritter Akt- Ich bin es, mein Carlos.wav
Пиковый уровень 71.1 %
Скорость извлечения 1.1 X
Качество трека 100.0 %
CRC теста 8E02EA1B
CRC копии 8E02EA1B
Трек не обнаружен в базе AccurateRip
Копирование... OK
Трек 7
Имя файла C:\Users\Nornore\Documents\EAC rips\VerdiCarlosGreindlFricsay\Disk 4\07. Dritter Akt- Bald wird uns die Stunde schlagen.wav
Пиковый уровень 64.0 %
Скорость извлечения 1.1 X
Качество трека 100.0 %
CRC теста CB1D3CA5
CRC копии CB1D3CA5
Трек не обнаружен в базе AccurateRip
Копирование... OK
Трек 8
Имя файла C:\Users\Nornore\Documents\EAC rips\VerdiCarlosGreindlFricsay\Disk 4\08. Dritter Akt- Weshalb sprichst du von Sterben.wav
Пиковый уровень 90.5 %
Скорость извлечения 1.0 X
Качество трека 100.0 %
CRC теста 5E71C304
CRC копии 5E71C304
Трек не обнаружен в базе AccurateRip
Копирование... OK
Трек 9
Имя файла C:\Users\Nornore\Documents\EAC rips\VerdiCarlosGreindlFricsay\Disk 4\09. Dritter Akt- Mein Carlos, noch eines.wav
Пиковый уровень 92.6 %
Скорость извлечения 1.1 X
Качество трека 100.0 %
CRC теста 1FB1C016
CRC копии 1FB1C016
Трек не обнаружен в базе AccurateRip
Копирование... OK
Трек 10
Имя файла C:\Users\Nornore\Documents\EAC rips\VerdiCarlosGreindlFricsay\Disk 4\10. Dritter Akt- Mein Sohn, nimm dein Schwert!.wav
Пиковый уровень 97.0 %
Скорость извлечения 1.2 X
Качество трека 100.0 %
CRC теста E9688DBF
CRC копии E9688DBF
Трек не обнаружен в базе AccurateRip
Копирование... OK
Трек 11
Имя файла C:\Users\Nornore\Documents\EAC rips\VerdiCarlosGreindlFricsay\Disk 4\11. Vierter Akt- Orchestereinleitung.wav
Пиковый уровень 69.6 %
Скорость извлечения 1.2 X
Качество трека 100.0 %
CRC теста FE1025CB
CRC копии FE1025CB
Трек не обнаружен в базе AccurateRip
Копирование... OK
Трек 12
Имя файла C:\Users\Nornore\Documents\EAC rips\VerdiCarlosGreindlFricsay\Disk 4\12. Vierter Akt- Du, im irdischen Wahn.wav
Пиковый уровень 91.9 %
Скорость извлечения 1.4 X
Качество трека 99.9 %
CRC теста D67F433E
CRC копии D67F433E
Трек не обнаружен в базе AccurateRip
Копирование... OK
Трек 13
Имя файла C:\Users\Nornore\Documents\EAC rips\VerdiCarlosGreindlFricsay\Disk 4\13. Vierter Akt- Elisabeth!.wav
Пиковый уровень 65.9 %
Скорость извлечения 1.4 X
Качество трека 100.0 %
CRC теста B59C3F24
CRC копии B59C3F24
Трек не обнаружен в базе AccurateRip
Копирование... OK
Трек 14
Имя файла C:\Users\Nornore\Documents\EAC rips\VerdiCarlosGreindlFricsay\Disk 4\14. Vierter Akt- Wiedersehen wird uns werden.wav
Пиковый уровень 49.8 %
Скорость извлечения 1.1 X
Качество трека 99.9 %
CRC теста 37FBC6FB
CRC копии 37FBC6FB
Трек не обнаружен в базе AccurateRip
Копирование... OK
Трек 15
Имя файла C:\Users\Nornore\Documents\EAC rips\VerdiCarlosGreindlFricsay\Disk 4\15. Vierter Akt- Ja, für immer!.wav
Пиковый уровень 92.7 %
Скорость извлечения 1.2 X
Качество трека 100.0 %
CRC теста B300EFE4
CRC копии B300EFE4
Трек не обнаружен в базе AccurateRip
Копирование... OK
Ни одного трека нет в базе AccurateRip
Ошибок не произошло
Конец отчёта
==== Контрольная сумма отчёта BBAAC9238E3FD6FD1245AA53A36AC0F750DC65A257C088DFF5A58D83985FDDD6 ====

Содержание индексной карты (.CUE)Disk 1

REM GENRE Opera
REM DATE 2013
REM DISCID CA0A5E0E
REM COMMENT "ExactAudioCopy v1.0b3"
PERFORMER "Verdi / Greindl, DFD, Greverus, Fricsay"
TITLE "Don Carlos (auf Deutsch) Disk 1 of 4"
FILE "01. Vorspiel- Der Hörner Schall verklingt.wav" WAVE
TRACK 01 AUDIO
TITLE "Vorspiel: Der Hörner Schall verklingt"
PERFORMER "Verdi / Greindl, DFD, Greverus, Fricsay"
FLAGS DCP
INDEX 01 00:00:00
FILE "02. Vorspiel- Aus Madrid kommet ihr.wav" WAVE
TRACK 02 AUDIO
TITLE "Vorspiel: Aus Madrid kommet ihr?"
PERFORMER "Verdi / Greindl, DFD, Greverus, Fricsay"
FLAGS DCP
INDEX 01 00:00:00
FILE "03. Vorspiel- Alles um uns scheint mir verzaubert.wav" WAVE
TRACK 03 AUDIO
TITLE "Vorspiel: Alles um uns scheint mir verzaubert"
PERFORMER "Verdi / Greindl, DFD, Greverus, Fricsay"
FLAGS DCP
INDEX 01 00:00:00
FILE "04. Vorspiel- Was gibt es.wav" WAVE
TRACK 04 AUDIO
TITLE "Vorspiel: Was gibt es?"
PERFORMER "Verdi / Greindl, DFD, Greverus, Fricsay"
FLAGS DCP
INDEX 01 00:00:00
FILE "05. Erster Akt- Alles Menschenwerk vergehet.wav" WAVE
TRACK 05 AUDIO
TITLE "Erster Akt: Alles Menschenwerk vergehet"
PERFORMER "Verdi / Greindl, DFD, Greverus, Fricsay"
FLAGS DCP
INDEX 01 00:00:00
FILE "06. Erster Akt- Der Welt entsag ich.wav" WAVE
TRACK 06 AUDIO
TITLE "Erster Akt: Der Welt entsag ich"
PERFORMER "Verdi / Greindl, DFD, Greverus, Fricsay"
FLAGS DCP
INDEX 01 00:00:00
FILE "07. Erster Akt- Nie werd ich den Tag vergessen.wav" WAVE
TRACK 07 AUDIO
TITLE "Erster Akt: Nie werd ich den Tag vergessen"
PERFORMER "Verdi / Greindl, DFD, Greverus, Fricsay"
FLAGS DCP
INDEX 01 00:00:00
FILE "08. Erster Akt- Er ist es, Carlos, mein Prinz.wav" WAVE
TRACK 08 AUDIO
TITLE "Erster Akt: Er ist es, Carlos, mein Prinz"
PERFORMER "Verdi / Greindl, DFD, Greverus, Fricsay"
FLAGS DCP
INDEX 01 00:00:00
FILE "09. Erster Akt- Gott, der Entflammte der Liebe.wav" WAVE
TRACK 09 AUDIO
TITLE "Erster Akt: Gott, der Entflammte der Liebe"
PERFORMER "Verdi / Greindl, DFD, Greverus, Fricsay"
FLAGS DCP
INDEX 01 00:00:00
FILE "10. Erster Akt- Wie so lieblich ist es.wav" WAVE
TRACK 10 AUDIO
TITLE "Erster Akt: Wie so lieblich ist es"
PERFORMER "Verdi / Greindl, DFD, Greverus, Fricsay"
FLAGS DCP
INDEX 01 00:00:00
FILE "11. Erster Akt- In dem stillen Haine.wav" WAVE
TRACK 11 AUDIO
TITLE "Erster Akt: In dem stillen Haine"
PERFORMER "Verdi / Greindl, DFD, Greverus, Fricsay"
FLAGS DCP
INDEX 01 00:00:00
FILE "12. Erster Akt- Die Königin!.wav" WAVE
TRACK 12 AUDIO
TITLE "Erster Akt: Die Königin!"
PERFORMER "Verdi / Greindl, DFD, Greverus, Fricsay"
FLAGS DCP
INDEX 01 00:00:00
FILE "13. Erster Akt- Erzählt uns jetzt von Frankreichs Hofe.wav" WAVE
TRACK 13 AUDIO
TITLE "Erster Akt: Erzählt uns jetzt von Frankreichs Hofe"
PERFORMER "Verdi / Greindl, DFD, Greverus, Fricsay"
FLAGS DCP
INDEX 01 00:00:00
FILE "14. Erster Akt- Traurig, verzweifelt fand ich Carlos.wav" WAVE
TRACK 14 AUDIO
TITLE "Erster Akt: Traurig, verzweifelt fand ich Carlos"
PERFORMER "Verdi / Greindl, DFD, Greverus, Fricsay"
FLAGS DCP
INDEX 01 00:00:00

Disk 2

REM GENRE Opera
REM DATE 2013
REM DISCID 9908750A
REM COMMENT "ExactAudioCopy v1.0b3"
PERFORMER "Verdi / Greindl, DFD, Greverus, Fricsay"
TITLE "Don Carlos (auf Deutsch) Disk 2 of 4"
FILE "01. Erster Akt- Ich komm, um zu erzählen.wav" WAVE
TRACK 01 AUDIO
TITLE "Erster Akt: Ich komm, um zu erzählen"
PERFORMER "Verdi / Greindl, DFD, Greverus, Fricsay"
FLAGS DCP
INDEX 01 00:00:00
FILE "02. Erster Akt- So allein seid Ihr, Madame.wav" WAVE
TRACK 02 AUDIO
TITLE "Erster Akt: So allein seid Ihr, Madame?"
PERFORMER "Verdi / Greindl, DFD, Greverus, Fricsay"
FLAGS DCP
INDEX 01 00:00:00
FILE "03. Erster Akt- O weine nicht, Gespielin.wav" WAVE
TRACK 03 AUDIO
TITLE "Erster Akt: O weine nicht, Gespielin"
PERFORMER "Verdi / Greindl, DFD, Greverus, Fricsay"
FLAGS DCP
INDEX 01 00:00:00
FILE "04. Erster Akt- Marchese Posa!.wav" WAVE
TRACK 04 AUDIO
TITLE "Erster Akt: Marchese Posa!"
PERFORMER "Verdi / Greindl, DFD, Greverus, Fricsay"
FLAGS DCP
INDEX 01 00:00:00
FILE "05. Erster Akt- Vernehmt, ich komme von Flandern.wav" WAVE
TRACK 05 AUDIO
TITLE "Erster Akt: Vernehmt, ich komme von Flandern"
PERFORMER "Verdi / Greindl, DFD, Greverus, Fricsay"
FLAGS DCP
INDEX 01 00:00:00
FILE "06. Erster Akt- Es ist nicht Frieden.wav" WAVE
TRACK 06 AUDIO
TITLE "Erster Akt: Es ist nicht Frieden"
PERFORMER "Verdi / Greindl, DFD, Greverus, Fricsay"
FLAGS DCP
INDEX 01 00:00:00
FILE "07. Erster Akt- Ihr standet lange vor Eurem König.wav" WAVE
TRACK 07 AUDIO
TITLE "Erster Akt: Ihr standet lange vor Eurem König"
PERFORMER "Verdi / Greindl, DFD, Greverus, Fricsay"
FLAGS DCP
INDEX 01 00:00:00
FILE "08. Zweiter Akt- Blumenduft, Lichtglanz der Sterne.wav" WAVE
TRACK 08 AUDIO
TITLE "Zweiter Akt: Blumenduft, Lichtglanz der Sterne"
PERFORMER "Verdi / Greindl, DFD, Greverus, Fricsay"
FLAGS DCP
INDEX 01 00:00:00
FILE "09. Zweiter Akt- Eboli, hört! Ich bin des Festestrubel.wav" WAVE
TRACK 09 AUDIO
TITLE "Zweiter Akt: Eboli, hört! Ich bin des Festestrubel"
PERFORMER "Verdi / Greindl, DFD, Greverus, Fricsay"
FLAGS DCP
INDEX 01 00:00:00
FILE "10. Zweiter Akt- Orchesterzwischenspiel.wav" WAVE
TRACK 10 AUDIO
TITLE "Zweiter Akt: Orchesterzwischenspiel"
PERFORMER "Verdi / Greindl, DFD, Greverus, Fricsay"
FLAGS DCP
INDEX 01 00:00:00

Disk 3

REM GENRE Opera
REM DATE 2013
REM DISCID 870BB00A
REM COMMENT "ExactAudioCopy v1.0b3"
PERFORMER "Verdi / Greindl, DFD, Greverus, Fricsay"
TITLE "Don Carlos (auf Deutsch) Disk 3 of 4"
FILE "01. Zweiter Akt- Um Mitternacht, in der Gärten.wav" WAVE
TRACK 01 AUDIO
TITLE "Zweiter Akt: Um Mitternacht, in der Gärten"
PERFORMER "Verdi / Greindl, DFD, Greverus, Fricsay"
FLAGS DCP
INDEX 01 00:00:00
FILE "02. Zweiter Akt- Was sprach er.wav" WAVE
TRACK 02 AUDIO
TITLE "Zweiter Akt: Was sprach er?"
PERFORMER "Verdi / Greindl, DFD, Greverus, Fricsay"
FLAGS DCP
INDEX 01 00:00:00
FILE "03. Zweiter Akt- Der festliche Tag ist erschienen.wav" WAVE
TRACK 03 AUDIO
TITLE "Zweiter Akt: Der festliche Tag ist erschienen"
PERFORMER "Verdi / Greindl, DFD, Greverus, Fricsay"
FLAGS DCP
INDEX 01 00:00:00
FILE "04. Zweiter Akt- Als aufs Haupt ich mir setzte die Krone.wav" WAVE
TRACK 04 AUDIO
TITLE "Zweiter Akt: Als aufs Haupt ich mir setzte die Krone"
PERFORMER "Verdi / Greindl, DFD, Greverus, Fricsay"
FLAGS DCP
INDEX 01 00:00:00
FILE "05. Zweiter Akt- Wie, Carlos O Gott!!!.wav" WAVE
TRACK 05 AUDIO
TITLE "Zweiter Akt: Wie, Carlos? O Gott!!!"
PERFORMER "Verdi / Greindl, DFD, Greverus, Fricsay"
FLAGS DCP
INDEX 01 00:00:00
FILE "06. Zweiter Akt- Sire, meine Zeit ist gekommen.wav" WAVE
TRACK 06 AUDIO
TITLE "Zweiter Akt: Sire, meine Zeit ist gekommen"
PERFORMER "Verdi / Greindl, DFD, Greverus, Fricsay"
FLAGS DCP
INDEX 01 00:00:00
FILE "07. Dritter Akt- Orchestereinleitung.wav" WAVE
TRACK 07 AUDIO
TITLE "Dritter Akt: Orchestereinleitung"
PERFORMER "Verdi / Greindl, DFD, Greverus, Fricsay"
FLAGS DCP
INDEX 01 00:00:00
FILE "08. Dritter Akt- Sie hat mich nie geliebt!.wav" WAVE
TRACK 08 AUDIO
TITLE "Dritter Akt: Sie hat mich nie geliebt!"
PERFORMER "Verdi / Greindl, DFD, Greverus, Fricsay"
FLAGS DCP
INDEX 01 00:00:00
FILE "09. Dritter Akt- Der Grossinquisitor!.wav" WAVE
TRACK 09 AUDIO
TITLE "Dritter Akt: Der Grossinquisitor!"
PERFORMER "Verdi / Greindl, DFD, Greverus, Fricsay"
FLAGS DCP
INDEX 01 00:00:00
FILE "10. Dritter Akt- Noch ward Spanien nie durch Ketzerei.wav" WAVE
TRACK 10 AUDIO
TITLE "Dritter Akt: Noch ward Spanien nie durch Ketzerei"
PERFORMER "Verdi / Greindl, DFD, Greverus, Fricsay"
FLAGS DCP
INDEX 01 00:00:00

Disk 4

REM GENRE Opera
REM DATE 2013
REM DISCID E00C4C0F
REM COMMENT "ExactAudioCopy v1.0b3"
PERFORMER "Verdi / Greindl, DFD, Greverus, Fricsay"
TITLE "Don Carlos (auf Deutsch) Disk 4 of 4"
FILE "01. Dritter Akt- Gerechtigkeit, mein König.wav" WAVE
TRACK 01 AUDIO
TITLE "Dritter Akt: Gerechtigkeit, mein König"
PERFORMER "Verdi / Greindl, DFD, Greverus, Fricsay"
FLAGS DCP
INDEX 01 00:00:00
FILE "02. Dritter Akt- Habt ihr vergessen.wav" WAVE
TRACK 02 AUDIO
TITLE "Dritter Akt: Habt ihr vergessen"
PERFORMER "Verdi / Greindl, DFD, Greverus, Fricsay"
FLAGS DCP
INDEX 01 00:00:00
FILE "03. Dritter Akt- Verflucht sei der Argwohn.wav" WAVE
TRACK 03 AUDIO
TITLE "Dritter Akt: Verflucht sei der Argwohn"
PERFORMER "Verdi / Greindl, DFD, Greverus, Fricsay"
FLAGS DCP
INDEX 01 00:00:00
FILE "04. Dritter Akt- O hört! Erbarm Euch meiner!.wav" WAVE
TRACK 04 AUDIO
TITLE "Dritter Akt: O hört! Erbarm Euch meiner!"
PERFORMER "Verdi / Greindl, DFD, Greverus, Fricsay"
FLAGS DCP
INDEX 01 00:00:00
FILE "05. Dritter Akt- Verhängnisvoll was das Geschenk.wav" WAVE
TRACK 05 AUDIO
TITLE "Dritter Akt: Verhängnisvoll was das Geschenk"
PERFORMER "Verdi / Greindl, DFD, Greverus, Fricsay"
FLAGS DCP
INDEX 01 00:00:00
FILE "06. Dritter Akt- Ich bin es, mein Carlos.wav" WAVE
TRACK 06 AUDIO
TITLE "Dritter Akt: Ich bin es, mein Carlos"
PERFORMER "Verdi / Greindl, DFD, Greverus, Fricsay"
FLAGS DCP
INDEX 01 00:00:00
FILE "07. Dritter Akt- Bald wird uns die Stunde schlagen.wav" WAVE
TRACK 07 AUDIO
TITLE "Dritter Akt: Bald wird uns die Stunde schlagen"
PERFORMER "Verdi / Greindl, DFD, Greverus, Fricsay"
FLAGS DCP
INDEX 01 00:00:00
FILE "08. Dritter Akt- Weshalb sprichst du von Sterben.wav" WAVE
TRACK 08 AUDIO
TITLE "Dritter Akt: Weshalb sprichst du von Sterben?"
PERFORMER "Verdi / Greindl, DFD, Greverus, Fricsay"
FLAGS DCP
INDEX 01 00:00:00
FILE "09. Dritter Akt- Mein Carlos, noch eines.wav" WAVE
TRACK 09 AUDIO
TITLE "Dritter Akt: Mein Carlos, noch eines"
PERFORMER "Verdi / Greindl, DFD, Greverus, Fricsay"
FLAGS DCP
INDEX 01 00:00:00
FILE "10. Dritter Akt- Mein Sohn, nimm dein Schwert!.wav" WAVE
TRACK 10 AUDIO
TITLE "Dritter Akt: Mein Sohn, nimm dein Schwert!"
PERFORMER "Verdi / Greindl, DFD, Greverus, Fricsay"
FLAGS DCP
INDEX 01 00:00:00
FILE "11. Vierter Akt- Orchestereinleitung.wav" WAVE
TRACK 11 AUDIO
TITLE "Vierter Akt: Orchestereinleitung"
PERFORMER "Verdi / Greindl, DFD, Greverus, Fricsay"
FLAGS DCP
INDEX 01 00:00:00
FILE "12. Vierter Akt- Du, im irdischen Wahn.wav" WAVE
TRACK 12 AUDIO
TITLE "Vierter Akt: Du, im irdischen Wahn"
PERFORMER "Verdi / Greindl, DFD, Greverus, Fricsay"
FLAGS DCP
INDEX 01 00:00:00
FILE "13. Vierter Akt- Elisabeth!.wav" WAVE
TRACK 13 AUDIO
TITLE "Vierter Akt: Elisabeth!"
PERFORMER "Verdi / Greindl, DFD, Greverus, Fricsay"
FLAGS DCP
INDEX 01 00:00:00
FILE "14. Vierter Akt- Wiedersehen wird uns werden.wav" WAVE
TRACK 14 AUDIO
TITLE "Vierter Akt: Wiedersehen wird uns werden"
PERFORMER "Verdi / Greindl, DFD, Greverus, Fricsay"
FLAGS DCP
INDEX 01 00:00:00
FILE "15. Vierter Akt- Ja, für immer!.wav" WAVE
TRACK 15 AUDIO
TITLE "Vierter Akt: Ja, für immer!"
PERFORMER "Verdi / Greindl, DFD, Greverus, Fricsay"
FLAGS DCP
INDEX 01 00:00:00



Показать сообщения:    

Текущее время: 08-Дек 01:19

Часовой пояс: UTC + 3


Вы не можете начинать темы
Вы не можете отвечать на сообщения
Вы не можете редактировать свои сообщения
Вы не можете удалять свои сообщения
Вы не можете голосовать в опросах
Вы не можете прикреплять файлы к сообщениям
Вы не можете скачивать файлы