[TR24][SM][OF] The Chopin Album - Sol Gabetta & Bertrand Chamayou - 2015 (Classical)


Статистика раздачи [Обновить пиров]
Размер:  1.37 GB   |    Зарегистрирован:  8 месяцев 15 дней   |    Скачан:  0 раз

Полного источника не было: Никогда

 
   
 
 
 

[Цитировать]

·
·
The Chopin AlbumЖанр: Chamber Music
Носитель: Official Digital Download
Год издания диска: 2015
Издатель(лейбл): Sony Music Entertainment Germany GmbH
Номер по каталогу: 88843093012/G010003174167C
Продолжительность: 01:10:01
Наличие сканов в содержимом раздачи: cover & booklet
Контейнер: FLAC (*.flac)
Разрядность: 24/96
Количество каналов: 2.0
Формат: tracks
Источник: qobuz.com
Pелизер: WEB (thanks to the original customer)
Sol Gabetta cello
Bertrand Chamayou piano

Треклист

Frédéric Chopin (1810-1849)Sonate für Klavier und Violoncello in g-Moll op. 65
01 I. Allegro moderato 16:37
02 II. Scherzo. Allegro con brio 05:30
03 III. Largo 04:29
04 IV. Finale. Allegro 06:34
Frédéric Chopin
05 Polonaise brillante in C-Dur op. 3 09:47
Frédéric Chopin & Auguste-Joseph Franchomme
06 Grand Duo Concertant (uber themen aus Meyerbeers "Robert der Teufel") 11:53
Frédéric Chopin
07 Etude op. 25 no. 7 in ci-Moll (Transkription in e-Moll für Cello von Alexander Glazunov) 05:16
Frédéric Chopin
08 Nocturne Op. 15 No. 1 (Transkription in G-Dur für Cello von A. Franchomme) 05:19
Auguste-Joseph Franchomme (1808-1884)
09 Nocturne für Cello und Klavier in e-Moll op. 14 Nr. 1 04:36

Dynamic Range Meter

foobar2000 1.2.6 / Dynamic Range Meter 1.1.1
log date: 2015-03-25 19:47:56
--------------------------------------------------------------------------------
Analyzed: Sol Gabetta, Bertrand Chamayou / The Chopin Album
--------------------------------------------------------------------------------
DR Peak RMS Duration Track
--------------------------------------------------------------------------------
DR11 -0.10 dB -15.43 dB 16:38 01-Sonata for Cello and Piano in G Minor, Op. 65:I. Allegro moderato
DR13 -0.10 dB -16.55 dB 5:30 02-Sonata for Cello and Piano in G Minor, Op. 65:II. Scherzo. Allegro con brio
DR11 -7.07 dB -23.46 dB 4:29 03-Sonata for Cello and Piano in G Minor, Op. 65:III. Largo
DR12 -0.10 dB -14.92 dB 6:34 04-Sonata for Cello and Piano in G Minor, Op. 65:IV. Finale. Allegro
DR13 -0.10 dB -17.03 dB 9:48 05-Polonaise brillante, Op. 3
DR13 -0.10 dB -16.69 dB 11:53 06-Grand Duo concertant in E Major
DR13 -1.97 dB -20.26 dB 5:16 07-Étude, Op. 25, No. 7 in C-Sharp Minor (transcribed in E Minor)
DR11 -6.39 dB -22.10 dB 5:19 08-Nocturne, Op. 15, No. 1 (Arr. for Cello and Piano)
DR11 -3.11 dB -19.05 dB 4:37 09-Nocturne for Cello and Piano, Op. 14, No. 1
--------------------------------------------------------------------------------
Number of tracks: 9
Official DR value: DR12
Samplerate: 96000 Hz
Channels: 2
Bits per sample: 24
Bitrate: 2768 kbps
Codec: FLAC
================================================================================
[teatrix.ru].t20735.torrent 
Торрент: Зарегистрирован [ 2016-03-20 00:35 ] · 881269F20AE7EFFF4D6DB23CC9CAB53603B2314F

Скачать .torrent

Скачать

15 KB

Статус: проверено
Скачан: 0 раз
Размер: 1.37 GB
terms.php



Быстрый ответ

Имя:

      
Для отправки сообщений необходимо включить JavaScript
Показать сообщения:    

Текущее время: 04-Дек 13:17

Часовой пояс: UTC + 3


Вы можете начинать темы
Вы можете отвечать на сообщения
Вы не можете редактировать свои сообщения
Вы не можете удалять свои сообщения
Вы не можете голосовать в опросах
Вы не можете прикреплять файлы к сообщениям
Вы можете скачивать файлы