(Opera) Banfield - Una lettera d'amore di Lord Byron (Zilio, Valayre, Brancaccio, Tedesco - Orchestra Regionale dell Emilia-Romagna, Masini) - 1999, APE (image+.cue) lossless


 

[Цитировать]

Raffaello de Banfield - Una lettera d'amore di Lord Byron
Жанр: Opera
Страна-производитель диска: Italy
Год издания диска: 1999
Издатель (лейбл): Aura
Номер по каталогу: 409-2
Дата записи: 1991
Аудиокодек: APE
Тип рипа: image+.cue
Битрейт аудио: lossless
Продолжительность: 51'52
Источник: собственный рип
Наличие сканов в содержимом раздачи: да
Треклист:
1. Scene 1: 'When are you going to learn how to play that piece?'
2. Scene 1: 'Ariadne! Ariadne!'
3. Scene 1: 'Yes, go'
4. Scene 2: 'Also he swam the Hellespont'
5. Scene 2: 'My! How interesting!'
6. Scene 3: 'Ah! Winston! Remove that silly hat!'
7. Scene 3: 'Like many American girls...'
8. Scene 4: 'Sssh! We set out in the early morning'
9. Scene 5: 'Stop there!'
10. Scene 5: 'Une saison enchantée!'
11. Scene 5: 'Mama, mama - you'll miss it!'
12. Scene 6: 'Canaille! Canaille! Canaille!'
Исполнители:
Raffaello de Banfield - Una lettera d'amore di Lord Byron
Opera in 1 Act
Libretto: Tennessee Williams
Elena Zilio
Sylvie Valayre
Gabriella Brancaccio
Sergio Tedesco
Orchestra Regionale dell'Emilia-Romagna
Gianfranco Masini (dirigent)

Лог создания рипа

Exact Audio Copy V1.0 beta 3 from 29. August 2011
EAC extraction logfile from 16. June 2013, 8:37
Banfield / Una Lettera D'Amore Di Lord Byron, Masini 1991
Used drive : TSSTcorpCDDVDW SE-208AB Adapter: 1 ID: 0
Read mode : Secure
Utilize accurate stream : Yes
Defeat audio cache : Yes
Make use of C2 pointers : No
Read offset correction : 6
Overread into Lead-In and Lead-Out : No
Fill up missing offset samples with silence : Yes
Delete leading and trailing silent blocks : No
Null samples used in CRC calculations : Yes
Used interface : Native Win32 interface for Win NT & 2000
Used output format : Monkey's Audio Lossless Encoder
Selected bitrate : High Lossless Compression
Quality : High
Add ID3 tag : Yes
Command line compressor : K:\Program Files (x86)\Exact Audio Copy\Monkeys Audio\Monkey's Audio\MAC.exe
Additional command line options : -6 -V -T "ARTIST=%artist%" -T "TITLE=%title%" -T "ALBUM=%albumtitle%" -T "DATE=%year%" -T "TRACKNUMBER=%tracknr%" -T "GENRE=%genre%" -T "COMMENT=%comment%" -T "BAND=%albuminterpret%" -T "ALBUMARTIST=%albuminterpret%" -T "COMPOSER=%composer%" %haslyrics%--tag-from-file=LYRICS="%lyricsfile%"%haslyrics% -T "DISCNUMBER=%cdnumber%" -T "TOTALDISCS=%totalcds%" -T "TOTALTRACKS=%numtracks%" %hascover%--picture="%coverfile%"%hascover% %source% -o %dest%
TOC of the extracted CD
Track | Start | Length | Start sector | End sector
---------------------------------------------------------
1 | 0:00.00 | 5:21.57 | 0 | 24131
2 | 5:21.57 | 1:17.48 | 24132 | 29954
3 | 6:39.30 | 6:34.65 | 29955 | 59569
4 | 13:14.20 | 3:05.20 | 59570 | 73464
5 | 16:19.40 | 0:33.62 | 73465 | 76001
6 | 16:53.27 | 2:15.45 | 76002 | 86171
7 | 19:08.72 | 3:46.73 | 86172 | 103194
8 | 22:55.70 | 12:39.70 | 103195 | 160189
9 | 35:35.65 | 5:03.35 | 160190 | 182949
10 | 40:39.25 | 4:52.70 | 182950 | 204919
11 | 45:32.20 | 1:49.17 | 204920 | 213111
12 | 47:21.37 | 4:30.40 | 213112 | 233401
Range status and errors
Selected range
Filename I:\Foobar-EAC\Banfield - Una Lettera D'Amore Di Lord Byron, Masini 1991.wav
Peak level 55.4 %
Extraction speed 4.2 X
Range quality 100.0 %
Test CRC A877E8E8
Copy CRC A877E8E8
Copy OK
No errors occurred
AccurateRip summary
Track 1 not present in database
Track 2 not present in database
Track 3 not present in database
Track 4 not present in database
Track 5 not present in database
Track 6 not present in database
Track 7 not present in database
Track 8 not present in database
Track 9 not present in database
Track 10 not present in database
Track 11 not present in database
Track 12 not present in database
None of the tracks are present in the AccurateRip database
End of status report
==== Log checksum 10869363FAEFBEECBE42137338C1FFB91E694851424677969943BFDEA379C656 ====

Содержание индексной карты (.CUE)

REM GENRE Opera
REM DATE 1991
REM DISCID 900C280C
REM COMMENT "ExactAudioCopy v1.0b3"
PERFORMER "Banfield"
TITLE "Una Lettera D'Amore Di Lord Byron, Masini 1991"
FILE "Banfield - Una Lettera D'Amore Di Lord Byron, Masini 1991.ape" WAVE
TRACK 01 AUDIO
TITLE "Scene 1 - When are you going to learn"
PERFORMER "Banfield"
INDEX 01 00:00:00
TRACK 02 AUDIO
TITLE "Scene 1 - Ariadne! Ariadne!"
PERFORMER "Banfield"
INDEX 01 05:21:57
TRACK 03 AUDIO
TITLE "Scene 1 - Yes, go"
PERFORMER "Banfield"
INDEX 01 06:39:30
TRACK 04 AUDIO
TITLE "Scene 2 - Also he swam the Hellespont"
PERFORMER "Banfield"
INDEX 01 13:14:20
TRACK 05 AUDIO
TITLE "Scene 2 - My! How interesting!"
PERFORMER "Banfield"
INDEX 01 16:19:40
TRACK 06 AUDIO
TITLE "Scene 3 - Ah! Winston! Remove that silly hat!"
PERFORMER "Banfield"
INDEX 01 16:53:27
TRACK 07 AUDIO
TITLE "Scene 3 - Like many american girls"
PERFORMER "Banfield"
INDEX 01 19:08:72
TRACK 08 AUDIO
TITLE "Scene 4 - Ssssh! We set out in the early morning"
PERFORMER "Banfield"
INDEX 01 22:55:70
TRACK 09 AUDIO
TITLE "Scene 5 - Stop there!"
PERFORMER "Banfield"
INDEX 01 35:35:65
TRACK 10 AUDIO
TITLE "Scene 5 - Une saison enchantee!"
PERFORMER "Banfield"
INDEX 01 40:39:25
TRACK 11 AUDIO
TITLE "Scene 5 - Mama, mama - you'll miss it!"
PERFORMER "Banfield"
INDEX 01 45:32:20
TRACK 12 AUDIO
TITLE "Scene 6 - Canaille! Canaille! Canaille!"
PERFORMER "Banfield"
INDEX 01 47:21:37



Показать сообщения:    

Текущее время: 06-Дек 18:58

Часовой пояс: UTC + 3


Вы не можете начинать темы
Вы не можете отвечать на сообщения
Вы не можете редактировать свои сообщения
Вы не можете удалять свои сообщения
Вы не можете голосовать в опросах
Вы не можете прикреплять файлы к сообщениям
Вы не можете скачивать файлы