Симфония № 42 / Symphony No. 42 (Река Букси / Reka Bucsi) [2014, Венгрия, сюрреализм, анимация, короткий метр, HDTVRip-AVC]


 

[Цитировать]

Симфония № 42
Symphony No. 42- Страна: Венгрия
Жанр: сюрреализм, анимация, короткий метр
Год выпуска: 2014
Продолжительность: 00:09:30
Перевод: Не требуется
Cубтитры: нет
Оригинальная аудиодорожка: фоновые звуки
Режиссер: Река Букси / Reka Bucsi
В ролях: анимацияОписание: Субъективный взгляд на мир, показанный в 42 сценах, наполненных чередующимися и переплетающимися событиями, призван выразить иррациональное единство между человеком и природой.
Доп. информация: Arte HD
Награды: включен в шорт-лист "Оскар" 2015; номинация на Гран-при в категории "Короткометражный фильм" Sundance Film Festival 2015; номинация на "Золотой медведь" за лучший короткометражный фильм Berlin International Film Festival 2014; Специальный приз жюри Chicago International Film Festival 2014; др. награды.

Качество видео: HDTVRip-AVC
Формат видео: MKV
Видео: AVC (H.264), 1152x640 (16:9), 25 fps, ~2500 kbps avg, 0.136 bit/pixel
Аудио: AC3, 2 ch, 48 kHz, ~192.00 kbps avg

MediaInfo

Общее
Уникальный идентификатор : 242612974788730653829915200898256622880 (0xB6858F2E902E7B76A6EDA33ADDA85520)
Полное имя : E:\My Torrents 2\[apreder]MINI_MOVIES_09\[apreder]MM_Symphonie_n42(2014)HDTVRip.mkv
Формат : Matroska
Версия формата : Version 2
Размер файла : 183 Мбайт
Продолжительность : 9 м. 30 с.
Общий поток : 2695 Кбит/сек
Дата кодирования : UTC 2015-03-25 17:53:04
Программа кодирования : mkvmerge v7.7.0 ('Six Voices') 64bit built on Feb 28 2015 23:39:33
Библиотека кодирования : libebml v1.3.1 + libmatroska v1.4.2
Видео
Идентификатор : 1
Формат : AVC
Формат/Информация : Advanced Video Codec
Профиль формата : High@L4.1
Параметр CABAC формата : Да
Параметр ReFrames формата : 11 кадров
Идентификатор кодека : V_MPEG4/ISO/AVC
Продолжительность : 9 м. 30 с.
Битрейт : 2500 Кбит/сек
Ширина : 1152 пикселя
Высота : 640 пикселей
Соотношение сторон : 16:9
Режим частоты кадров : Постоянный
Частота кадров : 25,000 кадров/сек
Цветовое пространство : YUV
Субдискретизация насыщенности : 4:2:0
Битовая глубина : 8 бит
Тип развёртки : Прогрессивная
Бит/(Пиксели*Кадры) : 0.136
Размер потока : 167 Мбайт (91%)
Библиотека кодирования : x264 core 146 r2538 121396c
Настройки программы : cabac=1 / ref=11 / deblock=1:1:1 / analyse=0x3:0x133 / me=umh / subme=10 / psy=1 / psy_rd=0.40:0.00 / mixed_ref=1 / me_range=24 / chroma_me=1 / trellis=2 / 8x8dct=1 / cqm=0 / deadzone=21,11 / fast_pskip=1 / chroma_qp_offset=-2 / threads=6 / lookahead_threads=1 / sliced_threads=0 / nr=0 / decimate=1 / interlaced=0 / bluray_compat=0 / constrained_intra=0 / bframes=10 / b_pyramid=2 / b_adapt=2 / b_bias=0 / direct=3 / weightb=1 / open_gop=0 / weightp=2 / keyint=250 / keyint_min=25 / scenecut=40 / intra_refresh=0 / rc_lookahead=60 / rc=2pass / mbtree=1 / bitrate=2500 / ratetol=1.0 / qcomp=0.60 / qpmin=0 / qpmax=69 / qpstep=4 / cplxblur=20.0 / qblur=0.5 / vbv_maxrate=62500 / vbv_bufsize=78125 / nal_hrd=none / filler=0 / ip_ratio=1.40 / aq=1:0.60
Default : Да
Forced : Нет
Аудио
Идентификатор : 2
Формат : AC-3
Формат/Информация : Audio Coding 3
Расширение режима : CM (complete main)
Параметр Endianness формата : Big
Идентификатор кодека : A_AC3
Продолжительность : 9 м. 30 с.
Вид битрейта : Постоянный
Битрейт : 192 Кбит/сек
Каналы : 2 канала
Расположение каналов : Front: L R
Частота : 48,0 КГц
Битовая глубина : 16 бит
Метод сжатия : С потерями
Размер потока : 13,1 Мбайт (7%)
Default : Да
Forced : Нет

Скриншот c названием фильма

Скриншоты


Резервные скриншоты


-[2'180]



Показать сообщения:    

Текущее время: 05-Дек 01:16

Часовой пояс: UTC + 3


Вы не можете начинать темы
Вы не можете отвечать на сообщения
Вы не можете редактировать свои сообщения
Вы не можете удалять свои сообщения
Вы не можете голосовать в опросах
Вы не можете прикреплять файлы к сообщениям
Вы не можете скачивать файлы