[TR24][OF] Philip Glass - The Hours, Metamorphosis, Mad Rush (Valentina Lisitsa / Валентина Лисица) - 2015 (Classical, Piano)

DL-List and Torrent activity [Update пиров]
Size:  2.92 GB   |    Registered:  7 months 7 days   |    Completed:  1 time

Seeder not seen: 2 months 26 days



Valentina Lisitsa plays Philip Glass
The Hours · Metamorphosis · Mad Rush
- Год издания: 2015
Жанр: Classical, Piano
Издатель (лейбл): Decca
Продолжительность: 02:44:04
Наличие сканов: Sleeve, Digital Booklet
- -Philip Glass (1937)
Valentina Lisitsa - piano
Recording Location: Reitstadel, Neumarkt, 1–4 September 2014

Контейнер: FLAC (*.flac)
Тип рипа: tracks
Разрядность: 24bit / 96kHz
Количество каналов: 2.0

01.Opening (6:09)
The Truman Show
02. Truman Sleeps (short version) (2:40)
The Hours (arr. Michael Riesman)
03. The Poet Acts (4:01)
04. Morning Passages (6:10)
How Now
05. How Now (29:52)
The Hours (arr. Michael Riesman)
06. Something She Has To Do (3:59)
07. I'm Going To Make A Cake (3:20)
Olympian: Lighting Of The Torch
08. Olympian: Lighting Of The Torch (3:32)
Mad Rush
09. Mad Rush (16:17)
The Hours (arr. Michael Riesman)
10. Dead Things (4:41)
11. Tearing Herself Away (5:14)
Wichita Sutra Vortex
12. Wichita Sutra Vortex (7:22)
The Hours (arr. Michael Riesman)
13. Escape! (4:34)
14. Chosing Life (4:42)
15. The Hours (7:47)
16. Metamorphosis One (7:41)
17. Metamorphosis Two (8:26)
18. Metamorphosis Three (5:39)
19. Metamorphosis Four (8:28)
20. Metamorphosis Five (6:45)
Mishima (arr. Michael Riesman)
21. Closing (3:38)
The Hours (arr. Michael Riesman)
22. An Unwelcome Friend (4:51)
23. Why Does Someone Have To Die? (4:49)
The Truman Show
24. Truman Sleeps (3:25)

О релизе

Cutting-edge pianist meets trendsetting composer: Valentina Lisitsa, whose artistry has bewitched audiences around the world, is releasing a double album selection of works for solo piano by Philip Glass, whose brand of minimalism has made him one of the most influential composers of our time. Valentina Lisitsa plays Philip Glass (Decca) is a stunning collection of Glass’s piano works, performed by Lisitsa with the grace and understanding of a true minimalist interpreter.
Music on the album includes tracks from Stephen Daldry’s BAFTA-winning and Academy Award-nominated film The Hours, using the building blocks of minimalism to achieve a huge, inventive soundscape of musical richness and contrasts. The most substantial piece in the collection is the mesmerising 30-minute How Now, one of the first compositions written for the Philip Glass Ensemble in 1968. Also featured is Metamorphosis, a five-movement work of music for a theatrical adaptation of Kafka’s play of the same name. Other works featured include the iconic Mad Rush, which Glass performed at the first public appearance of the 14th Dalai Lama in New York City in 1981 and Mishima / Closing, part of the soundtrack to the 1985 film Mishima: A Life in Four Chapters.
Richly harmonic, this collection of definitive Glass is a deeply evocative listening experience, with revelatory performances from Lisitsa. She captures the essential beauty in Glass’s circular melodies and the drama he infuses into his minimalistic approach.
“Her performances…showed that her success is backed up by enormous talent and technical flair.” (The New York Times)
“The YouTube sensation is really at the top of her game and she really makes the music move” (Classic FM)

ОтчётыДинамический диапазон

foobar2000 1.2.2 / Dynamic Range Meter 1.1.1
log date: 2015-03-25 14:32:21
Analyzed: Valentina Lisitsa / Valentina Lisitsa Plays Philip Glass
DR Peak RMS Duration Track
DR11 -6.59 dB -23.74 dB 6:09 ?-Glassworks - Opening
DR15 -3.39 dB -25.43 dB 2:40 ?-Truman Sleeps ("The Truman Show")
DR12 -5.98 dB -23.63 dB 4:01 ?-The Hours - Arr. Michael Riesman - The Poet Acts
DR13 -4.13 dB -22.28 dB 6:10 ?-The Hours - Arr. Michael Riesman - Morning Passages
DR12 -2.86 dB -20.67 dB 29:52 ?-How Now
DR15 -5.13 dB -26.36 dB 3:59 ?-The Hours - Arr. Michael Riesman - Something She Has To Do
DR11 -0.76 dB -18.80 dB 3:20 ?-The Hours - Arr. Michael Riesman - I'm Going To Make A Cake
DR12 -0.43 dB -16.08 dB 3:32 ?-Olympian: Lighting Of The Torch
DR12 -0.14 dB -19.92 dB 16:17 ?-Mad Rush
DR14 -8.46 dB -28.26 dB 4:41 ?-The Hours - Arr. Michael Riesman - Dead Things
DR15 -0.46 dB -23.06 dB 5:14 ?-The Hours - Arr. Michael Riesman - Tearing Herself Away
DR12 -1.65 dB -19.76 dB 7:22 ?-Wichita Sutra Vortex
DR14 -5.47 dB -28.43 dB 4:34 ?-The Hours - Arr. Michael Riesman - Escape!
DR13 -10.02 dB -27.82 dB 4:42 ?-The Hours - Arr. Michael Riesman - Chosing Life
DR14 -2.98 dB -22.28 dB 7:47 ?-The Hours - Arr. Michael Riesman - The Hours
DR14 -7.25 dB -27.38 dB 7:41 ?-Metamorphosis One
DR12 -5.68 dB -25.75 dB 8:26 ?-Metamorphosis Two
DR11 -3.13 dB -20.69 dB 5:39 ?-Metamorphosis Three
DR12 -2.03 dB -20.20 dB 8:28 ?-Metamorphosis Four
DR15 -8.87 dB -31.53 dB 6:45 ?-Metamorphosis Five
DR11 -2.33 dB -18.50 dB 3:38 ?-Closing ("Mishima")
DR15 -2.66 dB -24.90 dB 4:51 ?-The Hours - Arr. Michael Riesman - An Unwelcome Friend
DR14 -4.67 dB -24.56 dB 4:49 ?-The Hours - Arr. Michael Riesman - Why Does Someone Have To Die?
DR15 -0.40 dB -22.26 dB 3:25 ?-Truman Sleeps ("The Truman Show")
Number of tracks: 24
Official DR value: DR13
Samplerate: 96000 Hz
Channels: 2
Bits per sample: 24
Bitrate: 2617 kbps
Codec: FLAC

Скриншот спектра частот

Доп. информация

При скачивании, если необходимо, переименуйте папку, в которой будет находиться альбомБольшая просьба к скачавшим поддерживать раздачу! Помогайте другим, ведь вам тоже может понадобиться помощь!Не забываем говорить "Спасибо"!Комментарии приветствуются!
Torrent: Registered [ 2016-03-20 00:37 ] · DCB5E8044320F4083A759BBA48A9A889E2668D6C

Download .torrent


17 KB

Status: checked
Completed: 1 times
Size: 2.92 GB

Quick Reply


Heads necessary to send messages to enable JavaScript
Display posts:    

Current time is: 27-Oct 15:54

All times are UTC + 3

You can post new topics in this forum
You can reply to topics in this forum
You cannot edit your posts in this forum
You cannot delete your posts in this forum
You cannot vote in polls in this forum
You cannot attach files in this forum
You can download files in this forum