(Orchestral) Fete a la Francaise: Chabrier, Dukas, Satie, Saint-Saens, Bizet, Thomas, Ibert / Праздник по-французски (Charles Dutoit, Orchestre Symphonique de Montreal) - 1989, FLAC (tracks+.cue) lossless


 

[Цитировать]

Fête à la Française
Жанр: Orchestral
Страна-производитель диска: USA
Год издания диска: 1989
Издатель (лейбл): Decca
Номер по каталогу: D-125235
Дата записи: 1987
Аудиокодек: FLAC
Тип рипа: tracks+.cue
Битрейт аудио: lossless
Продолжительность: 70'13
Источник: скачано с
Наличие сканов в содержимом раздачи: да
Треклист:
Emmanuel Chabrier (1841-1894)
Joyeuse Marche (1888) (3:54)
Paul Dukas (1865-1935)
L'Appenti sorcier (1897) (11:36)
Emmanuel Chabrier (1841-1894)
Espana (1883) (6:23)
Erik Satie (1866-1925)
Deux Gymnopedies (1888), orch. Debussy
I. Lent et grave (2:52)
II. Lent et douloureux (3:33)
Camille Saint-Saens (1835-1921)
Samson et Dalila Air et Danse bacchanale (1877) (7:09)
Georges Bizet (1838-1875)
Jeux d'enfants, Petite Suite Op. 22 (1871)
I. Marche (Trompette et tambour) (2:13)
II. Berceuse (La poupee) (2:34)
III. Impromptu (La toupie) (1:02)
IV. Duo (Petri mari, petite femme) (3:33)
V. Galop (Le bal) (1:53)
Ambroise Thomas (1822-1896)
Ouverture 'Raymond' (1851) (8:10)
Jacques Ibert (1890-1962)
Divertissement (1930)
I. Introduction (1:06)
II. Cortege (4:55)
III. Nocturne (2:35)
IV. Valse (3:02)
V. Parade (1:44)
VI. Finale (1:49)
Исполнители:
Orchestre Symphonique de Montreal
Charles Dutoit, conductor
rec. at St. Eustache, Montreal, October 1987

Лог создания рипа

Exact Audio Copy V1.0 beta 3 from 29. August 2011
EAC extraction logfile from 1. February 2015, 23:52
Charles Dutoit & Orchestre Symphonique de Montréal / Fête à la Francaise
Used drive : ATAPI iHOS104 Adapter: 4 ID: 0
Read mode : Secure
Utilize accurate stream : Yes
Defeat audio cache : Yes
Make use of C2 pointers : No
Read offset correction : 696
Overread into Lead-In and Lead-Out : No
Fill up missing offset samples with silence : Yes
Delete leading and trailing silent blocks : No
Null samples used in CRC calculations : Yes
Used interface : Native Win32 interface for Win NT & 2000
Gap handling : Appended to previous track
Used output format : User Defined Encoder
Selected bitrate : 1024 kBit/s
Quality : High
Add ID3 tag : No
Command line compressor : C:\Program Files (x86)\Exact Audio Copy\Flac\flac.exe
Additional command line options : -8 -V -T "ARTIST=%artist%" -T "TITLE=%title%" -T "ALBUM=%albumtitle%" -T "DATE=%year%" -T "TRACKNUMBER=%tracknr%" -T "GENRE=%genre%" -T "PERFORMER=%albuminterpret%" -T "COMPOSER=%composer%" %haslyrics%--tag-from-file=LYRICS="%lyricsfile%"%haslyrics% -T "ALBUMARTIST=%albumartist%" -T "DISCNUMBER=%cdnumber%" -T "TOTALDISCS=%totalcds%" -T "TOTALTRACKS=%numtracks%" -T "COMMENT=%comment%" %source% -o %dest%
TOC of the extracted CD
Track | Start | Length | Start sector | End sector
---------------------------------------------------------
1 | 0:00.33 | 3:54.60 | 33 | 17642
2 | 3:55.18 | 11:36.32 | 17643 | 69874
3 | 15:31.50 | 6:23.43 | 69875 | 98642
4 | 21:55.18 | 2:52.40 | 98643 | 111582
5 | 24:47.58 | 3:33.15 | 111583 | 127572
6 | 28:20.73 | 7:09.40 | 127573 | 159787
7 | 35:30.38 | 2:13.60 | 159788 | 169822
8 | 37:44.23 | 2:34.47 | 169823 | 181419
9 | 40:18.70 | 1:02.00 | 181420 | 186069
10 | 41:20.70 | 3:33.35 | 186070 | 202079
11 | 44:54.30 | 1:53.50 | 202080 | 210604
12 | 46:48.05 | 8:09.68 | 210605 | 247347
13 | 54:57.73 | 1:06.55 | 247348 | 252352
14 | 56:04.53 | 4:55.65 | 252353 | 274542
15 | 61:00.43 | 2:35.17 | 274543 | 286184
16 | 63:35.60 | 3:02.63 | 286185 | 299897
17 | 66:38.48 | 1:44.52 | 299898 | 307749
18 | 68:23.25 | 1:49.65 | 307750 | 315989
Track 1
Filename F:\EAC Rips F\Fete a la Francaise (Dutoit) [FLAC]\01 - Joyeuse Marche.wav
Pre-gap length 0:00:02.44
Peak level 85.9 %
Extraction speed 1.3 X
Track quality 100.0 %
Test CRC AD8C6752
Copy CRC AD8C6752
Accurately ripped (confidence 19) [6BB7F793] (AR v2)
Copy OK
Track 2
Filename F:\EAC Rips F\Fete a la Francaise (Dutoit) [FLAC]\02 - L'Apprenti Sorcier.wav
Pre-gap length 0:00:03.46
Peak level 94.0 %
Extraction speed 1.6 X
Track quality 100.0 %
Test CRC 218E78A7
Copy CRC 218E78A7
Accurately ripped (confidence 19) [C0E9581B] (AR v2)
Copy OK
Track 3
Filename F:\EAC Rips F\Fete a la Francaise (Dutoit) [FLAC]\03 - España.wav
Pre-gap length 0:00:03.86
Peak level 92.0 %
Extraction speed 1.8 X
Track quality 100.0 %
Test CRC 22E33442
Copy CRC 22E33442
Accurately ripped (confidence 17) [E72A6BE6] (AR v2)
Copy OK
Track 4
Filename F:\EAC Rips F\Fete a la Francaise (Dutoit) [FLAC]\04 - Deux Gymnopédies (Orch.Debussy) - I Lent et Grave.wav
Pre-gap length 0:00:03.30
Peak level 9.7 %
Extraction speed 1.8 X
Track quality 100.0 %
Test CRC EF010979
Copy CRC EF010979
Accurately ripped (confidence 19) [E243055B] (AR v2)
Copy OK
Track 5
Filename F:\EAC Rips F\Fete a la Francaise (Dutoit) [FLAC]\05 - Deux Gymnopédies (Orch.Debussy) - II Lent et douloureux.wav
Pre-gap length 0:00:01.50
Peak level 13.9 %
Extraction speed 1.9 X
Track quality 100.0 %
Test CRC ADAD015B
Copy CRC ADAD015B
Accurately ripped (confidence 19) [D804184A] (AR v2)
Copy OK
Track 6
Filename F:\EAC Rips F\Fete a la Francaise (Dutoit) [FLAC]\06 - Air et Danse bacchanale.wav
Pre-gap length 0:00:03.40
Peak level 87.0 %
Extraction speed 2.1 X
Track quality 100.0 %
Test CRC 5290D009
Copy CRC 5290D009
Accurately ripped (confidence 19) [13A7C4EB] (AR v2)
Copy OK
Track 7
Filename F:\EAC Rips F\Fete a la Francaise (Dutoit) [FLAC]\07 - Jeux d'enfants 1 Marche.wav
Pre-gap length 0:00:03.30
Peak level 49.0 %
Extraction speed 1.1 X
Track quality 99.9 %
Test CRC 118271A7
Copy CRC 118271A7
Accurately ripped (confidence 19) [C8CCD106] (AR v2)
Copy OK
Track 8
Filename F:\EAC Rips F\Fete a la Francaise (Dutoit) [FLAC]\08 - Jeux d'enfants 2 Berceuse.wav
Pre-gap length 0:00:01.80
Peak level 10.1 %
Extraction speed 2.0 X
Track quality 100.0 %
Test CRC 511183DA
Copy CRC 511183DA
Accurately ripped (confidence 19) [9C5CDCEB] (AR v2)
Copy OK
Track 9
Filename F:\EAC Rips F\Fete a la Francaise (Dutoit) [FLAC]\09 - Jeux d'enfants 3 Impromptu.wav
Pre-gap length 0:00:01.20
Peak level 37.0 %
Extraction speed 1.6 X
Track quality 100.0 %
Test CRC 03360FED
Copy CRC 03360FED
Accurately ripped (confidence 19) [C6A486F4] (AR v2)
Copy OK
Track 10
Filename F:\EAC Rips F\Fete a la Francaise (Dutoit) [FLAC]\10 - Jeux d'enfants 4 Duo.wav
Pre-gap length 0:00:01.73
Peak level 18.1 %
Extraction speed 1.5 X
Track quality 99.9 %
Test CRC 74B5AA8D
Copy CRC 74B5AA8D
Accurately ripped (confidence 19) [88695525] (AR v2)
Copy OK
Track 11
Filename F:\EAC Rips F\Fete a la Francaise (Dutoit) [FLAC]\11 - Jeux d'enfants 5 Galop.wav
Pre-gap length 0:00:01.73
Peak level 45.3 %
Extraction speed 1.9 X
Track quality 100.0 %
Test CRC 403FA61A
Copy CRC 403FA61A
Accurately ripped (confidence 19) [5E6FB6B1] (AR v2)
Copy OK
Track 12
Filename F:\EAC Rips F\Fete a la Francaise (Dutoit) [FLAC]\12 - Ouverture 'Raymond'.wav
Pre-gap length 0:00:03.66
Peak level 76.7 %
Extraction speed 2.5 X
Track quality 100.0 %
Test CRC 6E5CBF00
Copy CRC 6E5CBF00
Accurately ripped (confidence 19) [66F8228A] (AR v2)
Copy OK
Track 13
Filename F:\EAC Rips F\Fete a la Francaise (Dutoit) [FLAC]\13 - Divertissement 1 Introduction.wav
Pre-gap length 0:00:03.20
Peak level 83.0 %
Extraction speed 0.8 X
Track quality 99.8 %
Test CRC EE1A4E62
Copy CRC EE1A4E62
Accurately ripped (confidence 19) [C7DC6446] (AR v2)
Copy OK
Track 14
Filename F:\EAC Rips F\Fete a la Francaise (Dutoit) [FLAC]\14 - Divertissement 2 Cortège.wav
Pre-gap length 0:00:01.14
Peak level 58.6 %
Extraction speed 2.5 X
Track quality 100.0 %
Test CRC 634493FA
Copy CRC 634493FA
Accurately ripped (confidence 19) [699F33BD] (AR v2)
Copy OK
Track 15
Filename F:\EAC Rips F\Fete a la Francaise (Dutoit) [FLAC]\15 - Divertissement 3 Nocturne.wav
Pre-gap length 0:00:01.93
Peak level 19.8 %
Extraction speed 2.4 X
Track quality 100.0 %
Test CRC DCFAE4D0
Copy CRC DCFAE4D0
Accurately ripped (confidence 19) [1C591579] (AR v2)
Copy OK
Track 16
Filename F:\EAC Rips F\Fete a la Francaise (Dutoit) [FLAC]\16 - Divertissement 4 Valse.wav
Pre-gap length 0:00:00.66
Peak level 81.0 %
Extraction speed 2.5 X
Track quality 100.0 %
Test CRC 2E5E790E
Copy CRC 2E5E790E
Accurately ripped (confidence 19) [E79D7930] (AR v2)
Copy OK
Track 17
Filename F:\EAC Rips F\Fete a la Francaise (Dutoit) [FLAC]\17 - Divertissement 5 Parade.wav
Pre-gap length 0:00:01.40
Peak level 58.5 %
Extraction speed 2.2 X
Track quality 100.0 %
Test CRC E94D68D5
Copy CRC E94D68D5
Accurately ripped (confidence 19) [A42F812C] (AR v2)
Copy OK
Track 18
Filename F:\EAC Rips F\Fete a la Francaise (Dutoit) [FLAC]\18 - Divertissement 6 Finale.wav
Pre-gap length 0:00:01.94
Peak level 86.5 %
Extraction speed 2.3 X
Track quality 100.0 %
Test CRC 1C094B86
Copy CRC 1C094B86
Accurately ripped (confidence 18) [FEDC57C6] (AR v2)
Copy OK
All tracks accurately ripped
No errors occurred
End of status report
==== Log checksum 0ED9AAF05A1932212B8AE6D5CD906641029BD67FF7E2E2D7FD14D1F3B87D27F6 ====

Содержание индексной карты (.CUE)

REM GENRE Classical
REM DATE 1989
REM DISCID F6107512
REM COMMENT "ExactAudioCopy v1.0b3"
CATALOG 0028942152724
PERFORMER "Charles Dutoit & Orchestre Symphonique de Montrйal"
TITLE "Fкte а la Francaise"
FILE "01 - Joyeuse Marche.wav" WAVE
TRACK 01 AUDIO
TITLE "Joyeuse Marche"
PERFORMER "Charles Dutoit & Orchestre Symphonique de Montrйal"
ISRC GBF078711180
PREGAP 00:00:33
INDEX 01 00:00:00
TRACK 02 AUDIO
TITLE "L'Apprenti Sorcier"
PERFORMER "Charles Dutoit & Orchestre Symphonique de Montrйal"
ISRC GBF078711190
INDEX 00 03:51:25
FILE "02 - L'Apprenti Sorcier.wav" WAVE
INDEX 01 00:00:00
TRACK 03 AUDIO
TITLE "Espaсa"
PERFORMER "Charles Dutoit & Orchestre Symphonique de Montrйal"
ISRC GBF078711200
INDEX 00 11:32:42
FILE "03 - Espaсa.wav" WAVE
INDEX 01 00:00:00
TRACK 04 AUDIO
TITLE "Deux Gymnopйdies (Orch.Debussy) - I Lent et Grave"
PERFORMER "Charles Dutoit & Orchestre Symphonique de Montrйal"
ISRC GBF078711211
INDEX 00 06:20:20
FILE "04 - Deux Gymnopйdies (Orch.Debussy) - I Lent et Grave.wav" WAVE
INDEX 01 00:00:00
TRACK 05 AUDIO
TITLE "Deux Gymnopйdies (Orch.Debussy) - II Lent et douloureux"
PERFORMER "Charles Dutoit & Orchestre Symphonique de Montrйal"
ISRC GBF078711212
INDEX 00 02:51:02
FILE "05 - Deux Gymnopйdies (Orch.Debussy) - II Lent et douloureux.wav" WAVE
INDEX 01 00:00:00
TRACK 06 AUDIO
TITLE "Air et Danse bacchanale"
PERFORMER "Charles Dutoit & Orchestre Symphonique de Montrйal"
ISRC GBF078711220
INDEX 00 03:29:60
FILE "06 - Air et Danse bacchanale.wav" WAVE
INDEX 01 00:00:00
TRACK 07 AUDIO
TITLE "Jeux d'enfants 1 Marche"
PERFORMER "Charles Dutoit & Orchestre Symphonique de Montrйal"
ISRC GBF078711231
INDEX 00 07:06:17
FILE "07 - Jeux d'enfants 1 Marche.wav" WAVE
INDEX 01 00:00:00
TRACK 08 AUDIO
TITLE "Jeux d'enfants 2 Berceuse"
PERFORMER "Charles Dutoit & Orchestre Symphonique de Montrйal"
ISRC GBF078711232
INDEX 00 02:12:00
FILE "08 - Jeux d'enfants 2 Berceuse.wav" WAVE
INDEX 01 00:00:00
TRACK 09 AUDIO
TITLE "Jeux d'enfants 3 Impromptu"
PERFORMER "Charles Dutoit & Orchestre Symphonique de Montrйal"
ISRC GBF078711233
INDEX 00 02:33:32
FILE "09 - Jeux d'enfants 3 Impromptu.wav" WAVE
INDEX 01 00:00:00
TRACK 10 AUDIO
TITLE "Jeux d'enfants 4 Duo"
PERFORMER "Charles Dutoit & Orchestre Symphonique de Montrйal"
ISRC GBF078711234
INDEX 00 01:00:20
FILE "10 - Jeux d'enfants 4 Duo.wav" WAVE
INDEX 01 00:00:00
TRACK 11 AUDIO
TITLE "Jeux d'enfants 5 Galop"
PERFORMER "Charles Dutoit & Orchestre Symphonique de Montrйal"
ISRC GBF078711235
INDEX 00 03:31:55
FILE "11 - Jeux d'enfants 5 Galop.wav" WAVE
INDEX 01 00:00:00
TRACK 12 AUDIO
TITLE "Ouverture 'Raymond'"
PERFORMER "Charles Dutoit & Orchestre Symphonique de Montrйal"
ISRC GBF078711240
INDEX 00 01:50:00
FILE "12 - Ouverture 'Raymond'.wav" WAVE
INDEX 01 00:00:00
TRACK 13 AUDIO
TITLE "Divertissement 1 Introduction"
PERFORMER "Charles Dutoit & Orchestre Symphonique de Montrйal"
ISRC GBF078711251
INDEX 00 08:06:53
FILE "13 - Divertissement 1 Introduction.wav" WAVE
INDEX 01 00:00:00
TRACK 14 AUDIO
TITLE "Divertissement 2 Cortиge"
PERFORMER "Charles Dutoit & Orchestre Symphonique de Montrйal"
ISRC GBF078711252
INDEX 00 01:05:44
FILE "14 - Divertissement 2 Cortиge.wav" WAVE
INDEX 01 00:00:00
TRACK 15 AUDIO
TITLE "Divertissement 3 Nocturne"
PERFORMER "Charles Dutoit & Orchestre Symphonique de Montrйal"
ISRC GBF078711253
INDEX 00 04:53:70
FILE "15 - Divertissement 3 Nocturne.wav" WAVE
INDEX 01 00:00:00
TRACK 16 AUDIO
TITLE "Divertissement 4 Valse"
PERFORMER "Charles Dutoit & Orchestre Symphonique de Montrйal"
ISRC GBF078711254
INDEX 00 02:34:42
FILE "16 - Divertissement 4 Valse.wav" WAVE
INDEX 01 00:00:00
TRACK 17 AUDIO
TITLE "Divertissement 5 Parade"
PERFORMER "Charles Dutoit & Orchestre Symphonique de Montrйal"
ISRC GBF078711255
INDEX 00 03:01:33
FILE "17 - Divertissement 5 Parade.wav" WAVE
INDEX 01 00:00:00
TRACK 18 AUDIO
TITLE "Divertissement 6 Finale"
PERFORMER "Charles Dutoit & Orchestre Symphonique de Montrйal"
ISRC GBF078711256
INDEX 00 01:42:56
FILE "18 - Divertissement 6 Finale.wav" WAVE
INDEX 01 00:00:00
Доп. информация: Записи Шарля Дютуа и Монреальского симфонического оркестра отличаются тщательностью, аккуратностью и повышенным вниманием к индивидуальной манере исполняемой музыки и особенностям её эпохи. Сам дирижёр в одном из интервью объяснил это так: Мы очень заботимся о качестве звука. Многие коллективы культивируют звук интернациональный. Я же ищу звук той музыки, которую мы исполняем, но не звук для конкретного оркестра. Нельзя играть Берлиоза, как, скажем, Бетховена или Вагнера". Такова позиция маэстро при работе с любым коллективом: автор и авторский текст, стиль – вот что для него самое важное. Оркестр с фантастической точностью отзывается на любое его требование - ни одного постороннего призвука, ни одной доли опоздания, ни малейшего расхождения в унисонах, никакой натужности у духовых. При этом маэстро не забывает о том, что всё происходящее на сцене - до некоторой степени игра. В музыке Франции Дютуа чувствует себя так уверенно, что дирижирует наизусть, без нот; от этого струнные у него звучат так синхронно, а духовые - так чисто.
В программе "Праздник по-французски" - популярные симфонические призведения французских композиторов:
Эммануэль Шабрие - Радостный марш и Испания; Поль Дюка - Ученик чародея; Эрик Сати - Две гимнопедии в оркестровке Дебюсси; Камиль Сен-Санс - Вакханалия из оперы "Самсон и Далила"; Жорж Бизе - сюита "Детские игры"; Амбруаз Тома - Увертюра к опере "Раймонд, или Секрет королевы"; Жак Ибер - Дивертисмент для оркестра.



Показать сообщения:    

Текущее время: 04-Дек 15:18

Часовой пояс: UTC + 3


Вы не можете начинать темы
Вы не можете отвечать на сообщения
Вы не можете редактировать свои сообщения
Вы не можете удалять свои сообщения
Вы не можете голосовать в опросах
Вы не можете прикреплять файлы к сообщениям
Вы не можете скачивать файлы