Женитьба Фигаро (Евгений Писарев) [2014 г., комедия, SATRip] Московский драматический театр имени А.С.Пушкина


 

[Цитировать]

Женитьба Фигаро (2 части) Название театра: Московский драматический театр имени А.С.Пушкина.
Жанр: комедия.
Год выпуска: 2014.
Продолжительность: 01:13:08 + 01:29:35 (02:42:43).
Режиссер: заслуженный артист России Евгений Писарев.
Действующие лица и исполнители:
Граф Альмавива - Александр Арсентьев,
Графиня - Виктория Исакова,
Фигаро - Сергей Лазарев,
Сюзанна - Александра Урсуляк,
Марселина - заслуженная артистка России Ирина Бякова,
Антонио - Алексей Рахманов,
Фаншетта - Анна Бегунова,
Керубино - Сергей Кудряшов,
Бартоло - Олег Пышненко,
Базиль - Александр Матросов,
Дон Гусман Бридуазон - Сергей Миллер,
Дубльмен - Иван Литвиненко,
Педрильо - Николай Кисличенко
Духи - Анна Кармакова, Евгений Плиткин,
Крестьяне, крестьянки - студенты Школы-студии МХАТ.
Описание:
Комедия "Женитьба Фигаро", придуманная придворным часовщиком Бомарше, на протяжении трех столетий пользуется огромным успехом благодаря идеальной, словно часовой механизм, композиции, динамичности и юмору, который не утратил своей свежести.
Но главный секрет успеха, конечно, в характере главного героя: талантливый Фигаро потерпел крушение во всех своих общественных и творческих начинаниях, но он полон достоинства, созидательной силы, жизнелюбия, и главное - он влюблен. Именно из-за любви на его долю выпадает "безумный день", в течение которого ему предстоит плести интриги, выкручиваться на суде, обрести потерянных родителей, испытать предательство друга, мнимую измену молодой жены, но при этом не потерять веру ни в любовь, ни в самого себя.

Дополнительная информация:
Страна: Россия .
Выпущено: © "Единая Медиа Группа", © по заказу Правительства Москвы.
Автор: Пьер-Огюстен Карон Бомарше.
Перевод: Николай Любимов.
Художник-постановщик: Зиновий Марголин.
Художник по костюмам: Леонид Алексеев.
Художник по свету: заслуженный деятель искусств России Дамир Исмагилов.
Композитор и музыкальный руководитель спектакля: Игорь Горский.
Хореограф-постановщик: Альберт Албертс.
Премьера спектакля состоялась 23 апреля 2014 года.

О спектакле.
Релиз

Качество: SATRip
Формат: AVI
Видео:..720x416 (1.73:1), 25 fps, XviD MPEG-4 ~1778 kbps avg, 0.24 bit/pixel
Аудио:..44.100 kHz, MPEG Layer 3, 2 ch, ~128.00 kbps avg

Отчет Media Info

1-я часть
Общее
Полное имя : Zhenitba.Figaro_Moskovskij.DT.im.Pushkina.2014.XviD.SATRip.fenixclub\Zhenitba.Figaro_Moskovskij.DT.im.Pushkina.1.avi
Format : AVI
Format/Info : Audio Video Interleave
File size : 1 003 MiB
Duration : 1h 13mn
Overall bit rate : 1 917 Kbps
Writing application : VirtualDubModRus 1.5.10.2 (build 2542/release)
Writing library : VirtualDub build 32842/release
Video
ID : 0
Format : MPEG-4 Visual
Format profile : Advanced Simple@L5
Format settings, BVOP : 2
Format settings, QPel : No
Format settings, GMC : No warppoints
Format settings, Matrix : Default (H.263)
Muxing mode : Packed bitstream
Codec ID : XVID
Codec ID/Hint : XviD
Duration : 1h 13mn
Bit rate : 1 779 Kbps
Width : 720 pixels
Height : 416 pixels
Display aspect ratio : 1.731
Frame rate : 25.000 fps
Color space : YUV
Chroma subsampling : 4:2:0
Bit depth : 8 bits
Scan type : Progressive
Compression mode : Lossy
Bits/(Pixel*Frame) : 0.238
Stream size : 931 MiB (93%)
Writing library : XviD 73
Audio
ID : 1
Format : MPEG Audio
Format version : Version 1
Format profile : Layer 3
Mode : Joint stereo
Mode extension : MS Stereo
Codec ID : 55
Codec ID/Hint : MP3
Duration : 1h 13mn
Bit rate mode : Constant
Bit rate : 128 Kbps
Channel(s) : 2 channels
Sampling rate : 44.1 KHz
Compression mode : Lossy
Stream size : 67.0 MiB (7%)
Alignment : Split accross interleaves
Interleave, duration : 40 ms (1.00 video frame)
Interleave, preload duratio : 500 ms
Writing library : LAME3.98.2
2-я часть
Общее
Полное имя : Zhenitba.Figaro_Moskovskij.DT.im.Pushkina.2014.XviD.SATRip.fenixclub\Zhenitba.Figaro_Moskovskij.DT.im.Pushkina.2.avi
Format : AVI
Format/Info : Audio Video Interleave
File size : 1.20 GiB
Duration : 1h 29mn
Overall bit rate : 1 917 Kbps
Writing application : VirtualDubModRus 1.5.10.2 (build 2542/release)
Writing library : VirtualDub build 32842/release
Video
ID : 0
Format : MPEG-4 Visual
Format profile : Advanced Simple@L5
Format settings, BVOP : 2
Format settings, QPel : No
Format settings, GMC : No warppoints
Format settings, Matrix : Default (H.263)
Muxing mode : Packed bitstream
Codec ID : XVID
Codec ID/Hint : XviD
Duration : 1h 29mn
Bit rate : 1 779 Kbps
Width : 720 pixels
Height : 416 pixels
Display aspect ratio : 1.731
Frame rate : 25.000 fps
Color space : YUV
Chroma subsampling : 4:2:0
Bit depth : 8 bits
Scan type : Progressive
Compression mode : Lossy
Bits/(Pixel*Frame) : 0.238
Stream size : 1.11 GiB (93%)
Writing library : XviD 73
Audio
ID : 1
Format : MPEG Audio
Format version : Version 1
Format profile : Layer 3
Mode : Joint stereo
Mode extension : MS Stereo
Codec ID : 55
Codec ID/Hint : MP3
Duration : 1h 29mn
Bit rate mode : Constant
Bit rate : 128 Kbps
Channel(s) : 2 channels
Sampling rate : 44.1 KHz
Compression mode : Lossy
Stream size : 82.0 MiB (7%)
Alignment : Split accross interleaves
Interleave, duration : 40 ms (1.00 video frame)
Interleave, preload duratio : 500 ms
Writing library : LAME3.98.2

Скриншот с названием постановки

Скриншоты


Альтернативный хост





Показать сообщения:    

Текущее время: 09-Дек 10:51

Часовой пояс: UTC + 3


Вы не можете начинать темы
Вы не можете отвечать на сообщения
Вы не можете редактировать свои сообщения
Вы не можете удалять свои сообщения
Вы не можете голосовать в опросах
Вы не можете прикреплять файлы к сообщениям
Вы не можете скачивать файлы