(Opera) Saverio Mercadante - Il Giuramento / Саверио Меркаданте - Клятва (Gerd Albrecht; Mara Zampieri, Agnes Baltsa, Placido Domingo, Robert Kerns), 1979 - live recording from Wiener Staatsoper / 2006 - FLAC (tracks+.cue), lossless


 

[Цитировать]

Saverio Mercadante - Il Giuramento / Саверио Меркаданте - Клятва (Gerd Albrecht; Mara Zampieri, Agnes Baltsa, Plácido Domingo, Robert Kerns)
Жанр: Opera
Страна-производитель диска: Германия
Год издания диска: 2006
Издатель (лейбл): Orfeo d'Or
Дата записи: 1979
Аудиокодек: FLAC
Тип рипа: tracks+.cue
Битрейт аудио: lossless
Продолжительность: 98:02
Источник: релизер (Guillermo)
Исполнители:
Elaisa - Mara Zampieri,
Bianca - Agnes Baltsa,
Viscardo - Plácido Domingo,
Manfredo - Robert Kerns.
Gerd Albrecht, Conductor
Orchestra and Chorus of Wiener Staatsoper
Recorded live at Wiener Staatsoper, September, 9, 1979, in concert.

Треклист

Disc 1:
Act I:
1. Odi: in ogni intorno [02:09];
2. La Dea di tutti i cor... Bella adorata incognita [04:11];
3. Elaisa! Elaisa dov'è? [01:59];
4. Fier sospetto ohimè [02:39];
5. Oh mio german [04:10];
6. Voi ci spariste... Di superbo vincitor [05:19];
7. Era stella del mattino [03:27];
8. Oh sì, mie care... Or là, sull'onda [06:36];
9. Preghiamo! Ah, pregai tanto... Bianca! Ah, ti trovai [05:51];
10. Tutto è tenebre [04:29];
11. Fermate... Oh, istante [02:19];
12. Che vedo! - Manfredo! Ah [04:05];
13. Questo fatal mistero... Manfredo, eccoci a te [04:25];
Disc 2:
Act II:
1. Vittoria! Siracusa! [00:57];
2. Compita è ormai la giusta e terribil vendetta [06:27];
3. Interludio [04:09];
4. Alla pace degli eletti [01:43];
5. Si compia al giuramento [01:59];
6. Oh! Qual nome pronunziaste [08:29];
7. Viscardo! - Il rivedrete [01:12];
8. A te il veleno o perfida [02:21];
Act III:
9. Là posa. Bella ancora [07:01];
10. Eccola!... L'adorava qual s'adora [03:58];
11. Del suo tiranno a piè cadea [04:47];
12. Viscardo [03:20].

Лог создания рипаЛог создания рипа CD 1

Exact Audio Copy V1.0 beta 3 from 29. August 2011
EAC extraction logfile from 24. March 2015, 18:58
Artista desconocido / Título desconocido
Used drive : HL-DT-STDVDRAM GH22NS50 Adapter: 3 ID: 0
Read mode : Secure
Utilize accurate stream : Yes
Defeat audio cache : No
Make use of C2 pointers : Yes
Read offset correction : 667
Overread into Lead-In and Lead-Out : No
Fill up missing offset samples with silence : Yes
Delete leading and trailing silent blocks : Yes
Null samples used in CRC calculations : Yes
Used interface : Native Win32 interface for Win NT & 2000
Gap handling : Appended to previous track
Used output format : User Defined Encoder
Selected bitrate : 768 kBit/s
Quality : High
Add ID3 tag : No
Command line compressor : C:\Program Files (x86)\Exact Audio Copy\FLAC\FLAC.EXE
Additional command line options : -8 -V -T "ARTIST=%artist%" -T "TITLE=%title%" -T "ALBUM=%albumtitle%" -T "DATE=%year%" -T "TRACKNUMBER=%tracknr%" -T "GENRE=%genre%" -T "PERFORMER=%albuminterpret%" -T "COMPOSER=%composer%" %haslyrics%--tag-from-file=LYRICS="%lyricsfile%"%haslyrics% -T "ALBUMARTIST=%albumartist%" -T "DISCNUMBER=%cdnumber%" -T "TOTALDISCS=%totalcds%" -T "TOTALTRACKS=%numtracks%" -T "COMMENT=%comment%" %source% -o %dest%
TOC of the extracted CD
Track | Start | Length | Start sector | End sector
---------------------------------------------------------
1 | 0:00.00 | 2:09.00 | 0 | 9674
2 | 2:09.00 | 4:11.07 | 9675 | 28506
3 | 6:20.07 | 1:59.15 | 28507 | 37446
4 | 8:19.22 | 2:39.10 | 37447 | 49381
5 | 10:58.32 | 4:10.45 | 49382 | 68176
6 | 15:09.02 | 5:19.73 | 68177 | 92174
7 | 20:29.00 | 3:27.57 | 92175 | 107756
8 | 23:56.57 | 6:36.25 | 107757 | 137481
9 | 30:33.07 | 5:51.13 | 137482 | 163819
10 | 36:24.20 | 4:29.22 | 163820 | 184016
11 | 40:53.42 | 2:19.18 | 184017 | 194459
12 | 43:12.60 | 4:05.00 | 194460 | 212834
13 | 47:17.60 | 4:25.60 | 212835 | 232769
Track 1
Filename f:\Users\Guillermo\Desktop\EAC convertidos\01 Pista01.wav
Pre-gap length 0:00:02.00
Peak level 70.6 %
Extraction speed 14.5 X
Track quality 100.0 %
Test CRC C52E8A2E
Copy CRC C52E8A2E
Copy OK
Track 2
Filename f:\Users\Guillermo\Desktop\EAC convertidos\02 Pista02.wav
Peak level 30.7 %
Extraction speed 16.9 X
Track quality 99.9 %
Test CRC 4260DB02
Copy CRC 4260DB02
Copy OK
Track 3
Filename f:\Users\Guillermo\Desktop\EAC convertidos\03 Pista03.wav
Peak level 58.3 %
Extraction speed 15.4 X
Track quality 99.8 %
Test CRC C6A85CC3
Copy CRC C6A85CC3
Copy OK
Track 4
Filename f:\Users\Guillermo\Desktop\EAC convertidos\04 Pista04.wav
Peak level 45.2 %
Extraction speed 22.1 X
Track quality 100.0 %
Test CRC 8790068C
Copy CRC 8790068C
Copy OK
Track 5
Filename f:\Users\Guillermo\Desktop\EAC convertidos\05 Pista05.wav
Peak level 71.2 %
Extraction speed 23.7 X
Track quality 100.0 %
Test CRC 2B81F9AB
Copy CRC 2B81F9AB
Copy OK
Track 6
Filename f:\Users\Guillermo\Desktop\EAC convertidos\06 Pista06.wav
Peak level 65.0 %
Extraction speed 25.7 X
Track quality 100.0 %
Test CRC ED671E2E
Copy CRC ED671E2E
Copy OK
Track 7
Filename f:\Users\Guillermo\Desktop\EAC convertidos\07 Pista07.wav
Peak level 48.1 %
Extraction speed 21.8 X
Track quality 99.8 %
Test CRC DFEB192C
Copy CRC DFEB192C
Copy OK
Track 8
Filename f:\Users\Guillermo\Desktop\EAC convertidos\08 Pista08.wav
Peak level 62.6 %
Extraction speed 26.7 X
Track quality 100.0 %
Test CRC 3A7CA1E0
Copy CRC 3A7CA1E0
Copy OK
Track 9
Filename f:\Users\Guillermo\Desktop\EAC convertidos\09 Pista09.wav
Peak level 59.5 %
Extraction speed 26.5 X
Track quality 99.9 %
Test CRC D9BB311F
Copy CRC D9BB311F
Copy OK
Track 10
Filename f:\Users\Guillermo\Desktop\EAC convertidos\10 Pista10.wav
Peak level 70.8 %
Extraction speed 32.6 X
Track quality 100.0 %
Test CRC 3EB1BC52
Copy CRC 3EB1BC52
Copy OK
Track 11
Filename f:\Users\Guillermo\Desktop\EAC convertidos\11 Pista11.wav
Peak level 61.2 %
Extraction speed 22.7 X
Track quality 99.8 %
Test CRC 2911F41F
Copy CRC 2911F41F
Copy OK
Track 12
Filename f:\Users\Guillermo\Desktop\EAC convertidos\12 Pista12.wav
Peak level 58.1 %
Extraction speed 29.6 X
Track quality 100.0 %
Test CRC 9FFB7FE2
Copy CRC 9FFB7FE2
Copy OK
Track 13
Filename f:\Users\Guillermo\Desktop\EAC convertidos\13 Pista13.wav
Peak level 83.0 %
Extraction speed 35.2 X
Track quality 99.9 %
Test CRC 7826C2BF
Copy CRC 7826C2BF
Copy OK
No errors occurred
End of status report
==== Log checksum 31A49A7B4F3553E48FCFA3F607DFE78486176580CDDBC2476943F056FF5FE7FA ====

Лог создания рипа CD 2

Exact Audio Copy V1.0 beta 3 from 29. August 2011
EAC extraction logfile from 24. March 2015, 18:58
Artista desconocido / Título desconocido
Used drive : HL-DT-STDVDRAM GH22NS50 Adapter: 3 ID: 0
Read mode : Secure
Utilize accurate stream : Yes
Defeat audio cache : No
Make use of C2 pointers : Yes
Read offset correction : 667
Overread into Lead-In and Lead-Out : No
Fill up missing offset samples with silence : Yes
Delete leading and trailing silent blocks : Yes
Null samples used in CRC calculations : Yes
Used interface : Native Win32 interface for Win NT & 2000
Gap handling : Appended to previous track
Used output format : User Defined Encoder
Selected bitrate : 768 kBit/s
Quality : High
Add ID3 tag : No
Command line compressor : C:\Program Files (x86)\Exact Audio Copy\FLAC\FLAC.EXE
Additional command line options : -8 -V -T "ARTIST=%artist%" -T "TITLE=%title%" -T "ALBUM=%albumtitle%" -T "DATE=%year%" -T "TRACKNUMBER=%tracknr%" -T "GENRE=%genre%" -T "PERFORMER=%albuminterpret%" -T "COMPOSER=%composer%" %haslyrics%--tag-from-file=LYRICS="%lyricsfile%"%haslyrics% -T "ALBUMARTIST=%albumartist%" -T "DISCNUMBER=%cdnumber%" -T "TOTALDISCS=%totalcds%" -T "TOTALTRACKS=%numtracks%" -T "COMMENT=%comment%" %source% -o %dest%
TOC of the extracted CD
Track | Start | Length | Start sector | End sector
---------------------------------------------------------
1 | 0:00.00 | 2:09.00 | 0 | 9674
2 | 2:09.00 | 4:11.07 | 9675 | 28506
3 | 6:20.07 | 1:59.15 | 28507 | 37446
4 | 8:19.22 | 2:39.10 | 37447 | 49381
5 | 10:58.32 | 4:10.45 | 49382 | 68176
6 | 15:09.02 | 5:19.73 | 68177 | 92174
7 | 20:29.00 | 3:27.57 | 92175 | 107756
8 | 23:56.57 | 6:36.25 | 107757 | 137481
9 | 30:33.07 | 5:51.13 | 137482 | 163819
10 | 36:24.20 | 4:29.22 | 163820 | 184016
11 | 40:53.42 | 2:19.18 | 184017 | 194459
12 | 43:12.60 | 4:05.00 | 194460 | 212834
13 | 47:17.60 | 4:25.60 | 212835 | 232769
Track 1
Filename f:\Users\Guillermo\Desktop\EAC convertidos\01 Pista01.wav
Pre-gap length 0:00:02.00
Peak level 70.6 %
Extraction speed 14.5 X
Track quality 100.0 %
Test CRC C52E8A2E
Copy CRC C52E8A2E
Copy OK
Track 2
Filename f:\Users\Guillermo\Desktop\EAC convertidos\02 Pista02.wav
Peak level 30.7 %
Extraction speed 16.9 X
Track quality 99.9 %
Test CRC 4260DB02
Copy CRC 4260DB02
Copy OK
Track 3
Filename f:\Users\Guillermo\Desktop\EAC convertidos\03 Pista03.wav
Peak level 58.3 %
Extraction speed 15.4 X
Track quality 99.8 %
Test CRC C6A85CC3
Copy CRC C6A85CC3
Copy OK
Track 4
Filename f:\Users\Guillermo\Desktop\EAC convertidos\04 Pista04.wav
Peak level 45.2 %
Extraction speed 22.1 X
Track quality 100.0 %
Test CRC 8790068C
Copy CRC 8790068C
Copy OK
Track 5
Filename f:\Users\Guillermo\Desktop\EAC convertidos\05 Pista05.wav
Peak level 71.2 %
Extraction speed 23.7 X
Track quality 100.0 %
Test CRC 2B81F9AB
Copy CRC 2B81F9AB
Copy OK
Track 6
Filename f:\Users\Guillermo\Desktop\EAC convertidos\06 Pista06.wav
Peak level 65.0 %
Extraction speed 25.7 X
Track quality 100.0 %
Test CRC ED671E2E
Copy CRC ED671E2E
Copy OK
Track 7
Filename f:\Users\Guillermo\Desktop\EAC convertidos\07 Pista07.wav
Peak level 48.1 %
Extraction speed 21.8 X
Track quality 99.8 %
Test CRC DFEB192C
Copy CRC DFEB192C
Copy OK
Track 8
Filename f:\Users\Guillermo\Desktop\EAC convertidos\08 Pista08.wav
Peak level 62.6 %
Extraction speed 26.7 X
Track quality 100.0 %
Test CRC 3A7CA1E0
Copy CRC 3A7CA1E0
Copy OK
Track 9
Filename f:\Users\Guillermo\Desktop\EAC convertidos\09 Pista09.wav
Peak level 59.5 %
Extraction speed 26.5 X
Track quality 99.9 %
Test CRC D9BB311F
Copy CRC D9BB311F
Copy OK
Track 10
Filename f:\Users\Guillermo\Desktop\EAC convertidos\10 Pista10.wav
Peak level 70.8 %
Extraction speed 32.6 X
Track quality 100.0 %
Test CRC 3EB1BC52
Copy CRC 3EB1BC52
Copy OK
Track 11
Filename f:\Users\Guillermo\Desktop\EAC convertidos\11 Pista11.wav
Peak level 61.2 %
Extraction speed 22.7 X
Track quality 99.8 %
Test CRC 2911F41F
Copy CRC 2911F41F
Copy OK
Track 12
Filename f:\Users\Guillermo\Desktop\EAC convertidos\12 Pista12.wav
Peak level 58.1 %
Extraction speed 29.6 X
Track quality 100.0 %
Test CRC 9FFB7FE2
Copy CRC 9FFB7FE2
Copy OK
Track 13
Filename f:\Users\Guillermo\Desktop\EAC convertidos\13 Pista13.wav
Peak level 83.0 %
Extraction speed 35.2 X
Track quality 99.9 %
Test CRC 7826C2BF
Copy CRC 7826C2BF
Copy OK
No errors occurred
End of status report
==== Log checksum 31A49A7B4F3553E48FCFA3F607DFE78486176580CDDBC2476943F056FF5FE7FA ====

Содержание индексной карты (.CUE)Содержание индексной карты (.CUE) - CD 1

REM DISCID A40C1F0D
REM COMMENT "ExactAudioCopy v1.0b3"
FILE "01 Pista01.wav" WAVE
TRACK 01 AUDIO
INDEX 01 00:00:00
FILE "02 Pista02.wav" WAVE
TRACK 02 AUDIO
INDEX 01 00:00:00
FILE "03 Pista03.wav" WAVE
TRACK 03 AUDIO
INDEX 01 00:00:00
FILE "04 Pista04.wav" WAVE
TRACK 04 AUDIO
INDEX 01 00:00:00
FILE "05 Pista05.wav" WAVE
TRACK 05 AUDIO
INDEX 01 00:00:00
FILE "06 Pista06.wav" WAVE
TRACK 06 AUDIO
INDEX 01 00:00:00
FILE "07 Pista07.wav" WAVE
TRACK 07 AUDIO
INDEX 01 00:00:00
FILE "08 Pista08.wav" WAVE
TRACK 08 AUDIO
INDEX 01 00:00:00
FILE "09 Pista09.wav" WAVE
TRACK 09 AUDIO
INDEX 01 00:00:00
FILE "10 Pista10.wav" WAVE
TRACK 10 AUDIO
INDEX 01 00:00:00
FILE "11 Pista11.wav" WAVE
TRACK 11 AUDIO
INDEX 01 00:00:00
FILE "12 Pista12.wav" WAVE
TRACK 12 AUDIO
INDEX 01 00:00:00
FILE "13 Pista13.wav" WAVE
TRACK 13 AUDIO
INDEX 01 00:00:00

Содержание индексной карты (.CUE) - CD 2

REM GENRE Opera
REM DATE 2006
REM DISCID 920AE50C
REM COMMENT "ExactAudioCopy v1.0b3"
FILE "01 Atto secondo - Vittoria! Siracusa! (Coro).wav" WAVE
TRACK 01 AUDIO
INDEX 01 00:00:00
FILE "02 Atto secondo - Compita и ormai la giusta e terribil vendetta (Viscardo).wav" WAVE
TRACK 02 AUDIO
INDEX 01 00:00:00
FILE "03 Atto secondo - Interludio.wav" WAVE
TRACK 03 AUDIO
INDEX 01 00:00:00
FILE "04 Atto secondo - Alla pace degli eletti (Coro).wav" WAVE
TRACK 04 AUDIO
INDEX 01 00:00:00
FILE "05 Atto secondo - Si compia al giuramento (Elaisa).wav" WAVE
TRACK 05 AUDIO
INDEX 01 00:00:00
FILE "06 Atto secondo - Oh! qual nome prenunziaste (Elaisa, Bianca).wav" WAVE
TRACK 06 AUDIO
INDEX 01 00:00:00
FILE "07 Atto secondo - Viscardo! ... il rivedrete (Bianca, Elaisa, Manfredo).wav" WAVE
TRACK 07 AUDIO
INDEX 01 00:00:00
FILE "08 Atto secondo - A te il veleno o perfida (Manfredo, Bianca, Elaisa).wav" WAVE
TRACK 08 AUDIO
INDEX 01 00:00:00
FILE "09 Atto terzo - Lа posa. bella ancora (Elaisa).wav" WAVE
TRACK 09 AUDIO
INDEX 01 00:00:00
FILE "10 Atto terzo - Eccola! ... l'adorava qual s'adora (Viscardo, Elaisa).wav" WAVE
TRACK 10 AUDIO
INDEX 01 00:00:00
FILE "11 Atto terzo - Del suo tiranno a piи cadea - (Viscardo, Elaisa, Bianca).wav" WAVE
TRACK 11 AUDIO
INDEX 01 00:00:00
FILE "12 Atto terzo - Viscardo (Bianca, Viscardo, Elaisa).wav" WAVE
TRACK 12 AUDIO
INDEX 01 00:00:00



Показать сообщения:    

Текущее время: 08-Дек 11:00

Часовой пояс: UTC + 3


Вы не можете начинать темы
Вы не можете отвечать на сообщения
Вы не можете редактировать свои сообщения
Вы не можете удалять свои сообщения
Вы не можете голосовать в опросах
Вы не можете прикреплять файлы к сообщениям
Вы не можете скачивать файлы