Олигарх (Аркадий Мамонтов) [2015, журналистское расследование, HDTVRip]


Статистика раздачи [Обновить пиров]
Размер:  483 MB   |    Зарегистрирован:  8 месяцев 20 дней   |    Скачан:  0 раз

Полного источника не было: Никогда

 
   
 
 
 

[Цитировать]

Олигарх
Дата/Год выпуска: 2015
Страна: Россия
Жанр: журналистское расследование
Продолжительность: 00:40:58
Перевод: Не требуется
Русские субтитры: нет
Оригинальная аудиодорожка: русский
Режиссер: Аркадий Мамонтов
Телеканал: Россия HD
Описание: Игорь Коломойский - один из главных лидеров и спонсоров Майдана. Он всегда с теми, у кого есть власть, там, где есть доступ к огромным деньгам. Там, где он появляется, проливается кровь. Список его преступлений растет каждый день.....
качество: HDTVRip
формат: AVI
Видео: MPEG4, XviD, 720x400 (16:9), 25.000 fps, 1 445 Kbps (0.201 bit/pixel)
Аудио: AC-3, 48.0 KHz, 2 ch, 192 Kbps, CBR

MediaInfo

General
Complete name : G:\документалка\Олигарх.avi
Format : AVI
Format/Info : Audio Video Interleave
File size : 483 MiB
Duration : 40mn 58s
Overall bit rate : 1 646 Kbps
Writing application : VirtualDubMod 1.5.10.3 | www.virtualdub-fr.org || (build 2550/release)
Writing library : VirtualDubMod build 2550/release
Video
ID : 0
Format : MPEG-4 Visual
Format profile : Advanced Simple@L5
Format settings, BVOP : 1
Format settings, QPel : No
Format settings, GMC : No warppoints
Format settings, Matrix : Default (H.263)
Codec ID : XVID
Codec ID/Hint : XviD
Duration : 40mn 58s
Bit rate : 1 445 Kbps
Width : 720 pixels
Height : 400 pixels
Display aspect ratio : 16:9
Frame rate : 25.000 fps
Color space : YUV
Chroma subsampling : 4:2:0
Bit depth : 8 bits
Scan type : Progressive
Compression mode : Lossy
Bits/(Pixel*Frame) : 0.201
Stream size : 423 MiB (88%)
Writing library : XviD 73
Audio
ID : 1
Format : AC-3
Format/Info : Audio Coding 3
Mode extension : CM (complete main)
Format settings, Endianness : Big
Codec ID : 2000
Duration : 40mn 58s
Bit rate mode : Constant
Bit rate : 192 Kbps
Channel(s) : 2 channels
Channel positions : Front: L R
Sampling rate : 48.0 KHz
Bit depth : 16 bits
Compression mode : Lossy
Stream size : 56.3 MiB (12%)
Alignment : Split accross interleaves
Interleave, duration : 40 ms (1.00 video frame)
Interleave, preload duration : 500 ms

Скриншоты

[teatrix.ru].t20755.torrent 
Торрент: Зарегистрирован [ 2016-03-20 00:35 ] · 0FF34B50E71C7B71427906F94F1C8EB5B2579B34

Скачать .torrent

Скачать

19 KB

Статус: проверено
Скачан: 0 раз
Размер: 483 MB
terms.php



Быстрый ответ

Имя:

      
Для отправки сообщений необходимо включить JavaScript
Показать сообщения:    

Текущее время: 09-Дек 10:50

Часовой пояс: UTC + 3


Вы можете начинать темы
Вы можете отвечать на сообщения
Вы не можете редактировать свои сообщения
Вы не можете удалять свои сообщения
Вы не можете голосовать в опросах
Вы не можете прикреплять файлы к сообщениям
Вы можете скачивать файлы