[TR24][SM][OF] Shostakovich/Дмитрий Шостакович - Symphonies Nos 1 & 15 - Valery Gergiev.Георгиев & Mariinsky Orchestra - 2009 (Classical)


Статистика раздачи [Обновить пиров]
Размер:  1.16 GB   |    Зарегистрирован:  8 месяцев 15 дней   |    Скачан:  1 раз

Полного источника не было: 22 дня

 
   
 
 
 

[Цитировать]

·
·
Dmitry Shostakovich (1906–1975)Жанр: Symphony
Носитель: Official Digital Download
Год издания диска: 2009
Издатель(лейбл): Mariinsky Label
Номер по каталогу: MAR0502
Продолжительность: 01:15:52
Наличие сканов в содержимом раздачи: booklet, inlay, sleeve
Контейнер: FLAC (*.flac)
Разрядность: 24/96
Количество каналов: 2.0
Формат: tracks
Источник: bowers-wilkins.com
Pелизер: WEB (thanks to the original customer)
Valery Gergiev
Mariinsky Orchestra

Треклист

Symphony No. 1 in F minor Op. 1001 I Allegretto 8:52
02 II Allegro 4:40
03 III Lento - Largo 8:45
04 IV Allegro molto - Lento - Adagio - Presto 9:35
Symphony No. 15 in A major Op. 141
05 I Allegretto 8:18
06 II Adagio 14:59
07 III Allegretto 4:04
08 IV Adagio - Allegretto 16:36

Dynamic Range Meter

foobar2000 1.2.6 / Dynamic Range Meter 1.1.1
log date: 2015-03-27 22:04:03
--------------------------------------------------------------------------------
Analyzed: Valery Gergiev, Mariinsky Orchestra / Shostakovich: Symphonies Nos. 1 & 15
--------------------------------------------------------------------------------
DR Peak RMS Duration Track
--------------------------------------------------------------------------------
DR16 -6.54 dB -29.86 dB 8:52 01-Symphony No. 1 - I. Allegretto - Allegro non troppo
DR16 -4.80 dB -29.25 dB 4:40 02-Symphony No. 1 - II. Allegro
DR13 -10.02 dB -29.26 dB 8:45 03-Symphony No. 1 - III. Lento - Largo
DR15 -4.35 dB -26.09 dB 9:35 04-Symphony No. 1 - IV. Allegro molto - Lento - Adagio - Presto
DR16 -1.20 dB -28.29 dB 8:18 05-Symphony No. 15 - I. Allegretto
DR20 -0.10 dB -29.64 dB 15:00 06-Symphony No. 15 - II. Adagio
DR14 -4.25 dB -33.43 dB 4:04 07-Symphony No. 15 - III. Allegretto
DR17 -4.90 dB -30.15 dB 16:37 08-Symphony No. 15 - IV. Adagio - Allegretto
--------------------------------------------------------------------------------
Number of tracks: 8
Official DR value: DR16
Samplerate: 96000 Hz
Channels: 2
Bits per sample: 24
Bitrate: 2121 kbps
Codec: FLAC
================================================================================
[teatrix.ru].t20757.torrent 
Торрент: Зарегистрирован [ 2016-03-20 00:35 ] · 73804FB2015E6891699EBC358CEBC490495D660E

Скачать .torrent

Скачать

13 KB

Статус: проверено
Скачан: 1 раз
Размер: 1.16 GB
terms.php



Быстрый ответ

Имя:

      
Для отправки сообщений необходимо включить JavaScript
Показать сообщения:    

Текущее время: 04-Дек 21:22

Часовой пояс: UTC + 3


Вы можете начинать темы
Вы можете отвечать на сообщения
Вы не можете редактировать свои сообщения
Вы не можете удалять свои сообщения
Вы не можете голосовать в опросах
Вы не можете прикреплять файлы к сообщениям
Вы можете скачивать файлы