(Classical) Pietro Nardini - Complete String Quartets - Quartetto Eleusi - 2013, FLAC (image+.cue) lossless


 

[Цитировать]

Pietro Nardini - Complete String Quartets - Quartetto Eleusi
Жанр: Classical
Год издания диска: 2013
Издатель (лейбл): Brilliant Classics
Номер по каталогу: 94438
Дата записи: 2012
Аудиокодек: FLAC
Тип рипа: image+.cue
Битрейт аудио: lossless
Продолжительность: 68:40
Источник: собственный рип
Наличие сканов в содержимом раздачи: да
Треклист:
Pietro Nardini (1722-1793)
[1]-[2] String Quartet No.1 in A major
[3]-[5] String Quartet No.2 in C major
[6]-[7] String Quartet No.3 in B flat major
[8]-[10] String Quartet No.4 in F major
[11]-[12] String Quartet No.5 in G major
[13]-[14] String Quartet No.6 in E flat major
Исполнители:
Quartetto Eleusi
Mauro Massa violin
Andrea Vassalle violin
Simone Laghi viola
Valeria Brunelli cello

Лог создания рипа

Exact Audio Copy V1.0 beta 3 from 29. August 2011
EAC extraction logfile from 25. March 2015, 1:20
Quartetto Eleusi / Nardini - Complete String Quartets
Used drive : HL-DT-STDVDRAM GU70N Adapter: 0 ID: 0
Read mode : Secure
Utilize accurate stream : Yes
Defeat audio cache : Yes
Make use of C2 pointers : No
Read offset correction : 48
Overread into Lead-In and Lead-Out : No
Fill up missing offset samples with silence : Yes
Delete leading and trailing silent blocks : No
Null samples used in CRC calculations : Yes
Used interface : Native Win32 interface for Win NT & 2000
Used output format : User Defined Encoder
Selected bitrate : 128 kBit/s
Quality : High
Add ID3 tag : No
Command line compressor : C:\Program Files (x86)\Exact Audio Copy\Flac\flac.exe
Additional command line options : -V -8 -T "Date=%year%" -T "Genre=%genre%" %source%
TOC of the extracted CD
Track | Start | Length | Start sector | End sector
---------------------------------------------------------
1 | 0:00.00 | 4:40.14 | 0 | 21013
2 | 4:40.14 | 6:26.05 | 21014 | 49968
3 | 11:06.19 | 3:54.37 | 49969 | 67555
4 | 15:00.56 | 1:37.11 | 67556 | 74841
5 | 16:37.67 | 3:16.26 | 74842 | 89567
6 | 19:54.18 | 7:38.43 | 89568 | 123960
7 | 27:32.61 | 6:20.16 | 123961 | 152476
8 | 33:53.02 | 1:05.23 | 152477 | 157374
9 | 34:58.25 | 5:42.41 | 157375 | 183065
10 | 40:40.66 | 4:02.52 | 183066 | 201267
11 | 44:43.43 | 6:09.18 | 201268 | 228960
12 | 50:52.61 | 4:33.62 | 228961 | 249497
13 | 55:26.48 | 7:06.04 | 249498 | 281451
14 | 62:32.52 | 6:07.63 | 281452 | 309039
Range status and errors
Selected range
Filename C:\temp\Nardini - Complete String Quartets - Quartetto Eleusi\Nardini - Complete String Quartets.wav
Peak level 100.0 %
Extraction speed 2.2 X
Range quality 100.0 %
Test CRC 486C368B
Copy CRC 486C368B
Copy OK
No errors occurred
AccurateRip summary
Track 1 accurately ripped (confidence 5) [294BDAE9] (AR v2)
Track 2 accurately ripped (confidence 5) [6EA28E1C] (AR v2)
Track 3 accurately ripped (confidence 5) [2789EC9D] (AR v2)
Track 4 accurately ripped (confidence 5) [6BC0F97A] (AR v2)
Track 5 accurately ripped (confidence 5) [874C1CD2] (AR v2)
Track 6 accurately ripped (confidence 5) [05F57FD4] (AR v2)
Track 7 accurately ripped (confidence 5) [C71894A8] (AR v2)
Track 8 accurately ripped (confidence 5) [2319B2C7] (AR v2)
Track 9 accurately ripped (confidence 5) [0E45C3D3] (AR v2)
Track 10 accurately ripped (confidence 5) [9613A2E9] (AR v2)
Track 11 accurately ripped (confidence 5) [746EC281] (AR v2)
Track 12 accurately ripped (confidence 5) [28C047A2] (AR v2)
Track 13 accurately ripped (confidence 5) [6D100B0F] (AR v2)
Track 14 accurately ripped (confidence 5) [184B0BEE] (AR v2)
All tracks accurately ripped
End of status report
==== Log checksum 99E04C59AA23A578A01A48246D8691E881F83745D57724176EFCF01E39340FA8 ====



Показать сообщения:    

Текущее время: 10-Дек 17:46

Часовой пояс: UTC + 3


Вы не можете начинать темы
Вы не можете отвечать на сообщения
Вы не можете редактировать свои сообщения
Вы не можете удалять свои сообщения
Вы не можете голосовать в опросах
Вы не можете прикреплять файлы к сообщениям
Вы не можете скачивать файлы