Ложь на длинных ногах (Владимир Андреев) [1983 г., драма, экранизация, SATRip] Московский драматический театр имени М. Н. Ермоловой


 

[Цитировать]

Ложь на длинных ногах (2 серии) Название театра: Московский драматический театр имени М. Н. Ермоловой.
Год выпуска: 1983.
Жанр: драма, экранизация.
Продолжительность: 01:18:32 + 01:09:01 (02:27:33).
Режиссеры: народный артист РСФСР Владимир Андреев, Владимир Храмов.
Действующие лица и исполнители:
Либеро Инкоронато - народный артист РСФСР Владимир Андреев,
Костанса, сестра Либеро - Ольга Фомичева,
Роберто Перетти, бизнесмен - народный артист СССР Всеволод Якут,
Ольга Чигорелла - заслуженная артистка РСФСР Наталья Селезнева,
Бенедетто Чигорелла - заслуженный артист РСФСР Валерий Еремичев,
Кристина, мать Ольги - заслуженная артистка РСФСР Эдда Урусова,
Грациелла - Ольга Илюхина,
Кармела - Алиса Завенягина,
Гульельмо Капуто - Алексей Шейнин,
Анжелина Тромбетта - Елена Папанова,
Кормилица - Валентина Иванова,
Акушерка - Татьяна Аргунова,
Дядя Бенедетто - Николай Бриллинг,
Брат Бенедетто - Михаил Скандаров,
Сыновья дяди: Алексей Яковлев, В. Исаев.
Соседи: Вера Ионова, Вадим Цыганов.
Родственники: Владимир Бамдасов, Геннадий Косюков, Игорь Марченко, А. Рыбаков, Валентин Самохин, И. Паршин, Г. Шакирова.
От автора - Авангард Леонтьев.
Описание:
Действие вертится вокруг нескольких семейных историй одновременно. Нелюбимые женихи и нежеланные невесты, далекие любовники или просто хорошие знакомые выясняют свои запутанные отношения, то осторожно балансируя на краю откровенности, то срываясь в скандалы. Каждый что-то скрывает не только от других, но и от себя самого, боясь признаться, кто в бедности, кто в любви. В жестоком мире, основанном на лицемерии, практически все герои вынуждены преследовать только свои собственные интересы. Тайны запутывают героев еще больше, одна нелепость нагромождается на другую, и кажется, что выхода из сложившегося положения нет. Но появление сразу двух внебрачных детей неожиданно соединяет распавшиеся семьи, и семейное счастье передается по цепочке всем парам. Всеобщее примирение, так и не освободившее никого от обязанности лгать, побуждает главного героя Либеро первым раскрыть одну давнюю тайну. Пусть эта тайна в основе своей не так уж велика, а скорее - нелепа и комична. Но это лишь начало.
Дополнительная информация:
Страна: СССР .
Выпущено: © Творческое объединение "Экран".
Режиссер спектакля: народный артист РСФСР Владимир Андреев.
Автор пьесы: Эдуардо де Филиппо.
Режиссер телеверсии: Владимир Храмов.
Оператор-постановщик: Георгий Криницкий.
Художник-постановщик: Борис Бланк.
Премьера: 14 ноября 1983 года (ТВ).

Еще постер

Релиз

Качество: SATRip
Формат: AVI
Видео: 720x544 (1.32:1), 25 fps, DivX Codec 6.8.3 ~1968 kbps avg, 0.20 bit/pixel
Аудио: 48 kHz, MPEG Layer 3, 2 ch, ~128.00 kbps avg

Отчет MI

1-я серия
General
Complete name : Lozh.na.dlinnyh.nogah_Moskovskij.DT.im.Ermolovoj.1983.DivX.SATRip.fenixclub\Lozh.na.dlinnyh.nogah_Moskovskij.DT.im.Ermolovoj.1.avi
Format : AVI
Format/Info : Audio Video Interleave
File size : 1.16 GiB
Duration : 1h 18mn
Overall bit rate : 2 106 Kbps
Writing application : VirtualDubModRus 1.5.10.2 (build 2542/release)
Writing library : VirtualDub build 32842/release
Video
ID : 0
Format : MPEG-4 Visual
Format settings, BVOP : 1
Format settings, QPel : No
Format settings, GMC : No warppoints
Format settings, Matrix : Default (H.263)
Muxing mode : Packed bitstream
Codec ID : DX50
Codec ID/Hint : DivX 5
Duration : 1h 18mn
Bit rate : 1 969 Kbps
Width : 720 pixels
Height : 544 pixels
Display aspect ratio : 4:3
Frame rate : 25.000 fps
Color space : YUV
Chroma subsampling : 4:2:0
Bit depth : 8 bits
Scan type : Progressive
Compression mode : Lossy
Bits/(Pixel*Frame) : 0.201
Stream size : 1.08 GiB (93%)
Writing library : DivX 6.8.3-6.8.4 (UTC 2008-06-07)
Audio
ID : 1
Format : MPEG Audio
Format version : Version 1
Format profile : Layer 3
Mode : Joint stereo
Mode extension : MS Stereo
Codec ID : 55
Codec ID/Hint : MP3
Duration : 1h 18mn
Bit rate mode : Constant
Bit rate : 128 Kbps
Channel(s) : 2 channels
Sampling rate : 48.0 KHz
Compression mode : Lossy
Delay relative to video : 150ms
Stream size : 71.9 MiB (6%)
Alignment : Split accross interleaves
Interleave, duration : 40 ms (1.00 video frame)
Interleave, preload duratio : 500 ms.
2-я серия
General
Complete name : Lozh.na.dlinnyh.nogah_Moskovskij.DT.im.Ermolovoj.1983.DivX.SATRip.fenixclub\Lozh.na.dlinnyh.nogah_Moskovskij.DT.im.Ermolovoj.2.avi
Format : AVI
Format/Info : Audio Video Interleave
File size : 1.02 GiB
Duration : 1h 9mn
Overall bit rate : 2 107 Kbps
Writing application : VirtualDubModRus 1.5.10.2 (build 2542/release)
Writing library : VirtualDub build 32842/release
Video
ID : 0
Format : MPEG-4 Visual
Format settings, BVOP : 1
Format settings, QPel : No
Format settings, GMC : No warppoints
Format settings, Matrix : Default (H.263)
Muxing mode : Packed bitstream
Codec ID : DX50
Codec ID/Hint : DivX 5
Duration : 1h 9mn
Bit rate : 1 969 Kbps
Width : 720 pixels
Height : 544 pixels
Display aspect ratio : 4:3
Frame rate : 25.000 fps
Color space : YUV
Chroma subsampling : 4:2:0
Bit depth : 8 bits
Scan type : Progressive
Compression mode : Lossy
Bits/(Pixel*Frame) : 0.201
Stream size : 972 MiB (93%)
Writing library : DivX 6.8.3-6.8.4 (UTC 2008-06-07)
Audio
ID : 1
Format : MPEG Audio
Format version : Version 1
Format profile : Layer 3
Mode : Joint stereo
Mode extension : MS Stereo
Codec ID : 55
Codec ID/Hint : MP3
Duration : 1h 9mn
Bit rate mode : Constant
Bit rate : 128 Kbps
Channel(s) : 2 channels
Sampling rate : 48.0 KHz
Compression mode : Lossy
Delay relative to video : 150ms
Stream size : 63.2 MiB (6%)
Alignment : Split accross interleaves
Interleave, duration : 40 ms (1.00 video frame)
Interleave, preload duratio : 500 ms.

Скриншот с названием постановки

Скриншоты


Альтернативный хост





Показать сообщения:    

Текущее время: 08-Дек 09:04

Часовой пояс: UTC + 3


Вы не можете начинать темы
Вы не можете отвечать на сообщения
Вы не можете редактировать свои сообщения
Вы не можете удалять свои сообщения
Вы не можете голосовать в опросах
Вы не можете прикреплять файлы к сообщениям
Вы не можете скачивать файлы