[TR24][SM][OF] Shostakovich/Дмитрий Шостакович - Symphony No. 5 - Mstislav Rostropovich & London Symphony Orchestra - 2005 (Classical)


Статистика раздачи [Обновить пиров]
Размер:  449 MB   |    Зарегистрирован:  8 месяцев 17 дней   |    Скачан:  0 раз

Полного источника не было: Никогда

 
   
 
 
 

[Цитировать]

·
·
Dmitry Shostakovich (1906–1975)Жанр: Symphony
Носитель: Official Digital Download
Год издания диска: 2005
Издатель(лейбл): LSO Live
Номер по каталогу: LSO0550
Продолжительность: 46:58
Наличие сканов в содержимом раздачи: booklet, inlay, sleeve
Контейнер: FLAC (*.flac)
Разрядность: 24/48
Количество каналов: 2.0
Формат: tracks
Источник: bowers-wilkins.com
Pелизер: WEB (thanks to the original customer)
Mstislav Rostropovich
London Symphony Orchestra

Треклист

Symphony No. 5 in D minor Op. 47 (1937)
01 Moderato 15:39
02 Allegretto 5:47
03 Largo 12:39
04 Allegro non troppo 12:52

Dynamic Range Meter

foobar2000 1.2.6 / Dynamic Range Meter 1.1.1
log date: 2015-03-28 14:52:39
--------------------------------------------------------------------------------
Analyzed: London Symphony Orchestra, Mstislav Rostropovich / Shostakovich: Symphony No.5 in D minor, Op.47
--------------------------------------------------------------------------------
DR Peak RMS Duration Track
--------------------------------------------------------------------------------
DR17 0.00 dB -22.94 dB 15:38 01-Symphony No.5 in D minor, Op.47 - I. Moderato
DR16 -0.65 dB -24.63 dB 5:47 02-Symphony No.5 in D minor, Op.47 - II. Allegretto
DR19 -2.48 dB -29.56 dB 12:40 03-Symphony No.5 in D minor, Op.47 - III. Largo
DR14 0.00 dB -19.49 dB 12:50 04-Symphony No.5 in D minor, Op.47 - IV. Allegro non troppo
--------------------------------------------------------------------------------
Number of tracks: 4
Official DR value: DR16
Samplerate: 48000 Hz
Channels: 2
Bits per sample: 24
Bitrate: 1442 kbps
Codec: FLAC
================================================================================
[teatrix.ru].t20764.torrent 
Торрент: Зарегистрирован [ 2016-03-20 00:35 ] · 7032E2CA2CE9CE2620B89A30FAADAFD039BDE048

Скачать .torrent

Скачать

19 KB

Статус: проверено
Скачан: 0 раз
Размер: 449 MB
terms.php



Быстрый ответ

Имя:

      
Для отправки сообщений необходимо включить JavaScript
Показать сообщения:    

Текущее время: 06-Дек 11:13

Часовой пояс: UTC + 3


Вы можете начинать темы
Вы можете отвечать на сообщения
Вы не можете редактировать свои сообщения
Вы не можете удалять свои сообщения
Вы не можете голосовать в опросах
Вы не можете прикреплять файлы к сообщениям
Вы можете скачивать файлы