Исаак Ньютон - последний чародей / Исаак Ньютон - последний из магов / Isaac Newton the Last Magician (Ренни Бартлет / Renny Bartlett) [2013, документально-игровой, биографический, DVB] DVO (SDI Media)


Статистика раздачи [Обновить пиров]
Размер:  739 MB   |    Зарегистрирован:  8 месяцев 16 дней   |    Скачан:  0 раз

Полного источника не было: Никогда

 
   
 
 
 

[Цитировать]

Исаак Ньютон - последний чародей
Isaac Newton the Last Magician- Дата/Год выпуска: 2013
Страна: Великобритания
Жанр: документально-игровой, биографический
Продолжительность: 00:49:17
Перевод: Профессиональный (двухголосый закадровый)
Доп. инфо о переводе: Компания SDI Media по заказу ТПО "Ред Медиа"
Русские субтитры: нет
Режиссер: Ренни Бартлет / Renny Bartlett
Телеканал: 365 днейВ ролях: Джонатан Хайд / Jonathan Hyde (Isaac Newton), Ричард Линтерн / Richard Lintern (John Conduitt), Джеймс Лоуренсон / James Laurenson (Edmund Halley), Дэвид Бэмбер / David Bamber (John Flamsteed)
Описание: Многие считают Исаака Ньютона величайшим гением всех времён. При жизни его считали полубогом науки. Ньютон раскрыл саму природу света, что позволило нам изучить Вселенную. Благодаря ему мы можем рассчитывать движение и предсказывать изменения. Он объяснил силу, объясняющую всю Вселенную точной математической формулой - Закон всемирного тяготения. Ньютона почитают как рационального гения, который вывел нас из средневековой тьмы к свету просвещенности. Но Исаак Ньютон был также очень сложным и замкнутым человеком. Самые глубокие мании Ньютона были раскрыты только спустя 200 лет после его смерти. Он увлекался оккультизмом, еретической религией и алхимией.
Доп. информация: DVB-S. В отличие от имеющихся на трекере раздач с DVO (Видеофильм ТВ) – здесь другой перевод DVO (SDI Media).

качество: DVB
формат: MKV
Видео: MPEG Video 2, 720x576@768x576 (4:3), 25 fps, ~1864 kbps avg, 0.180 bit/pixel
Аудио: AC3, 2 ch, 48 kHz, ~192.00 kbps avg

MediaInfo

Общее
Уникальный идентификатор : 184776895008019838539396290717238809052 (0x8B02BC4A8F2C54E199EEB196E719D1DC)
Полное имя : E:\My Torrents 2\[apreder]Isaac_Newton_the_Last_Magician(2013)DVB.mkv
Формат : Matroska
Версия формата : Version 2
Размер файла : 739 Мбайт
Продолжительность : 49 м.
Режим общего битрейта : Переменный
Общий поток : 2097 Кбит/сек
Дата кодирования : UTC 2015-03-28 12:45:46
Программа кодирования : mkvmerge v7.8.0 ('River Man') 64bit built on Mar 27 2015 16:31:37
Библиотека кодирования : libebml v1.3.1 + libmatroska v1.4.2
Видео
Идентификатор : 1
Формат : MPEG Video
Версия формата : Version 2
Профиль формата : Main@Main
Параметр BVOP формата : Да
Параметр матрицы формата : Выборочная
Параметр GOP формата : M=3, N=36
Format_Settings_PictureStructure : Frame
Идентификатор кодека : V_MPEG2
Идентификатор кодека/Информация : MPEG 1 or 2 Video
Продолжительность : 49 м.
Вид битрейта : Переменный
Битрейт : 1864 Кбит/сек
Ширина : 720 пикселей
Высота : 576 пикселей
Соотношение сторон : 4:3
Режим частоты кадров : Постоянный
Частота кадров : 25,000 кадров/сек
Стандарт вещания : PAL
Цветовое пространство : YUV
Субдискретизация насыщенности : 4:2:0
Битовая глубина : 8 бит
Тип развёртки : Чересстрочная
Порядок развёртки : Верхнее поле первое
Метод сжатия : С потерями
Бит/(Пиксели*Кадры) : 0.180
Временной код первого кадра : 00:00:00:00
Оригинал временного кода : Group of pictures header
Размер потока : 657 Мбайт (89%)
Default : Да
Forced : Нет
Gop_OpenClosed_FirstFrame : Closed
Аудио
Идентификатор : 2
Формат : MPEG Audio
Версия формата : Version 1
Профиль формата : Layer 2
Идентификатор кодека : A_MPEG/L2
Идентификатор кодека/Подсказка : MP2
Продолжительность : 49 м.
Вид битрейта : Постоянный
Битрейт : 192 Кбит/сек
Каналы : 2 канала
Частота : 48,0 КГц
Метод сжатия : С потерями
Размер потока : 67,7 Мбайт (9%)
Язык : Russian
Default : Да
Forced : Нет

Скриншоты


Резервные скриншоты


-[2'185]
[teatrix.ru].t20765.torrent 
Торрент: Зарегистрирован [ 2016-03-20 00:35 ] · 3C8EF2A9CB292B311B2E2859A817B5B5EB5E4805

Скачать .torrent

Скачать

15 KB

Статус: проверено
Скачан: 0 раз
Размер: 739 MB
terms.php



Быстрый ответ

Имя:

      
Для отправки сообщений необходимо включить JavaScript
Показать сообщения:    

Текущее время: 05-Дек 21:40

Часовой пояс: UTC + 3


Вы можете начинать темы
Вы можете отвечать на сообщения
Вы не можете редактировать свои сообщения
Вы не можете удалять свои сообщения
Вы не можете голосовать в опросах
Вы не можете прикреплять файлы к сообщениям
Вы можете скачивать файлы