(Classical) Franz Schubert - The Piano Trios - Владимир Ашкенази (Ashkenazy), Pinchas Zukerman, Lynn Harrell - 1997, FLAC (image+.cue) lossless


 

[Цитировать]

Franz Schubert - The Piano Trios - Владимир Ашкенази (Ashkenazy), Pinchas Zukerman, Lynn Harrell
Жанр: Classical
Год издания диска: 1997
Издатель (лейбл): Decca
Дата записи: 1996
Аудиокодек: FLAC
Тип рипа: image+.cue
Битрейт аудио: lossless
Продолжительность: 91:18
Источник: собственный рип
Наличие сканов в содержимом раздачи: да
Треклист:
Franz Schubert
CD1
[1]-[4] Trio in B flat major for piano, violin and cello, Op.99, D898
CD2
[1]-[4] Trio in E flat major for piano, violin and cello, Op.100, D929
Исполнители:
Vladimir Ashkenazy piano
Pinchas Zukerman violin
Lynn Harrell cello

Лог создания рипа: CD1

Exact Audio Copy V1.0 beta 3 from 29. August 2011
EAC extraction logfile from 6. December 2014, 15:43
Vladimir Ashkenazy, Pinchas Zukerman, Lynn Harrell / Schubert - The Piano Trios - CD1
Used drive : HL-DT-STDVDRAM GU70N Adapter: 0 ID: 0
Read mode : Secure
Utilize accurate stream : Yes
Defeat audio cache : Yes
Make use of C2 pointers : No
Read offset correction : 48
Overread into Lead-In and Lead-Out : No
Fill up missing offset samples with silence : Yes
Delete leading and trailing silent blocks : No
Null samples used in CRC calculations : Yes
Used interface : Native Win32 interface for Win NT & 2000
Used output format : User Defined Encoder
Selected bitrate : 128 kBit/s
Quality : High
Add ID3 tag : No
Command line compressor : C:\Program Files (x86)\Exact Audio Copy\Flac\flac.exe
Additional command line options : -V -8 -T "Date=%year%" -T "Genre=%genre%" %source%
TOC of the extracted CD
Track | Start | Length | Start sector | End sector
---------------------------------------------------------
1 | 0:00.33 | 15:52.37 | 33 | 71469
2 | 15:52.70 | 12:01.38 | 71470 | 125582
3 | 27:54.33 | 6:49.37 | 125583 | 156294
4 | 34:43.70 | 9:28.63 | 156295 | 198957
Range status and errors
Selected range
Filename C:\temp\Schubert - The Piano Trios - Ashkenazy, Zukerman, Harrell\CD1\Schubert - The Piano Trios - CD1.wav
Peak level 93.0 %
Extraction speed 4.8 X
Range quality 100.0 %
Test CRC CA7CFD52
Copy CRC CA7CFD52
Copy OK
No errors occurred
AccurateRip summary
Track 1 accurately ripped (confidence 3) [D4C38A84] (AR v2)
Track 2 accurately ripped (confidence 3) [204C26AC] (AR v2)
Track 3 accurately ripped (confidence 3) [9D83954E] (AR v2)
Track 4 accurately ripped (confidence 3) [8EF63940] (AR v2)
All tracks accurately ripped
End of status report
==== Log checksum FAA4EB799482F7CA9A2EDCD1AC7346C473A16169CAE00196355A9CD51D3ED32C ====

Лог создания рипа: CD2

Exact Audio Copy V1.0 beta 3 from 29. August 2011
EAC extraction logfile from 6. December 2014, 16:09
Vladimir Ashkenazy, Pinchas Zukerman, Lynn Harrell / Schubert - The Piano Trios - CD2
Used drive : HL-DT-STDVDRAM GU70N Adapter: 0 ID: 0
Read mode : Secure
Utilize accurate stream : Yes
Defeat audio cache : Yes
Make use of C2 pointers : No
Read offset correction : 48
Overread into Lead-In and Lead-Out : No
Fill up missing offset samples with silence : Yes
Delete leading and trailing silent blocks : No
Null samples used in CRC calculations : Yes
Used interface : Native Win32 interface for Win NT & 2000
Used output format : User Defined Encoder
Selected bitrate : 128 kBit/s
Quality : High
Add ID3 tag : No
Command line compressor : C:\Program Files (x86)\Exact Audio Copy\Flac\flac.exe
Additional command line options : -V -8 -T "Date=%year%" -T "Genre=%genre%" %source%
TOC of the extracted CD
Track | Start | Length | Start sector | End sector
---------------------------------------------------------
1 | 0:00.32 | 15:52.00 | 32 | 71431
2 | 15:52.32 | 10:33.25 | 71432 | 118931
3 | 26:25.57 | 7:11.00 | 118932 | 151256
4 | 33:36.57 | 13:38.50 | 151257 | 212656
Range status and errors
Selected range
Filename C:\temp\Schubert - The Piano Trios - Ashkenazy, Zukerman, Harrell\CD2\Schubert - The Piano Trios - CD2.wav
Peak level 100.0 %
Extraction speed 4.9 X
Range quality 100.0 %
Test CRC 9D3C9C5C
Copy CRC 9D3C9C5C
Copy OK
No errors occurred
AccurateRip summary
Track 1 accurately ripped (confidence 3) [4EE27F65] (AR v2)
Track 2 accurately ripped (confidence 3) [B3F790DD] (AR v2)
Track 3 accurately ripped (confidence 3) [FBDA117C] (AR v2)
Track 4 accurately ripped (confidence 3) [2445F9A3] (AR v2)
All tracks accurately ripped
End of status report
==== Log checksum D355B317107319BFE5AF8616F610F22E9D64001C02BB55CBF5B364D3F5D6DDE6 ====



Показать сообщения:    

Текущее время: 11-Дек 14:59

Часовой пояс: UTC + 3


Вы не можете начинать темы
Вы не можете отвечать на сообщения
Вы не можете редактировать свои сообщения
Вы не можете удалять свои сообщения
Вы не можете голосовать в опросах
Вы не можете прикреплять файлы к сообщениям
Вы не можете скачивать файлы