[TR24][SM][OF] Rachmaninov/Сергей Рахманинов - Heritage : Works for Two Pianos - Alexander Kobrin & Frederic D’Oria-Nicolas - 2013 (Classical)


Статистика раздачи [Обновить пиров]
Размер:  1.32 GB   |    Зарегистрирован:  8 месяцев 16 дней   |    Скачан:  1 раз

Полного источника не было: 23 дня

 
   
 
 
 

[Цитировать]

·
·
Sergei Rachmaninov (1873–1943)Жанр: Keyboard
Носитель: Official Digital Download
Год издания диска: 2013
Издатель(лейбл): Fondamenta
Номер по каталогу: FON-1210011
Продолжительность: 01:23:55
Наличие сканов в содержимом раздачи: cover & booklet
Контейнер: FLAC (*.flac)
Разрядность: 24/88,2
Количество каналов: 2.0
Формат: tracks
Источник: qobuz.com
Pелизер: WEB (thanks to the original customer)
Alexander Kobrin piano
Frédéric D’Oria-Nicolas piano

DISK 1

Suite No.1 Op.501 I. Barcarolle 08:35
02 II. La nuit … l'amour 06:52
03 III. Les Larmes 07:30
04 IV. Paques 02:55
Suite No.2 Op.17
05 I. Introduction: Alla marcia 04:25
06 II. Valse: Presto 05:59
07 III. Romance: Andantino 06:38
08 IV. Tarantelle: Presto 06:31

-

Dynamic Range Meter

foobar2000 1.2.6 / Dynamic Range Meter 1.1.1
log date: 2015-03-28 21:37:20
--------------------------------------------------------------------------------
Analyzed: Alexander Kobrin, Frédéric D’Oria-Nicolas / Héritage: Works For Two Pianos
--------------------------------------------------------------------------------
DR Peak RMS Duration Track
--------------------------------------------------------------------------------
DR13 -2.31 dB -19.50 dB 8:35 01-Suite No.1 Op.5 - I. Barcarolle (Mobility Mastering)
DR14 -0.14 dB -19.87 dB 6:51 02-Suite No.1 Op.5 - II. La Nuit... L'Amour (Mobility Mastering)
DR15 -0.63 dB -21.60 dB 7:30 03-Suite No.1 Op.5 - III. Larmes (Mobility Mastering)
DR13 -0.55 dB -16.03 dB 2:54 04-Suite No.1 Op.5 - IV. Pâques (Mobility Mastering)
DR14 -0.82 dB -19.03 dB 4:25 05-Suite No.2 Op.17 - I. Introduction (Mobility Mastering)
DR14 -0.65 dB -19.79 dB 5:59 06-Suite No.2 Op.17 - II. Valse (Mobility Mastering)
DR15 -0.86 dB -20.58 dB 6:37 07-Suite No.2 Op.17 - III. Romance (Mobility Mastering)
DR13 -0.96 dB -18.11 dB 6:32 08-Suite No.2 Op.17 - IV. Tarentelle (Mobility Mastering)
--------------------------------------------------------------------------------
Number of tracks: 8
Official DR value: DR14
Samplerate: 88200 Hz
Channels: 2
Bits per sample: 24
Bitrate: 2242 kbps
Codec: FLAC
================================================================================

DISK 2

Symphonic Dances Op.4509 I. Non Allegro 10:54
10 II. Andante con moto, Tempo di valse 10:12
11 III. Lento assai - Allegro vivace 13:26

-

Dynamic Range Meter

foobar2000 1.2.6 / Dynamic Range Meter 1.1.1
log date: 2015-03-28 21:36:02
--------------------------------------------------------------------------------
Analyzed: Alexander Kobrin, Frédéric D’Oria-Nicolas / Héritage: Works For Two Pianos
--------------------------------------------------------------------------------
DR Peak RMS Duration Track
--------------------------------------------------------------------------------
DR15 -0.50 dB -19.93 dB 10:53 09-Symphonic Dances Op.45 - I. Non Allegro (Mobility Mastering)
DR14 -1.06 dB -20.01 dB 10:12 10-Symphonic Dances Op.45 - II. Andante con moto (Mobility Mastering)
DR14 -0.42 dB -18.93 dB 13:26 11-Symphonic Dances Op.45 - III. Lento assai - Allegro vivace (Mobility Mastering)
--------------------------------------------------------------------------------
Number of tracks: 3
Official DR value: DR14
Samplerate: 88200 Hz
Channels: 2
Bits per sample: 24
Bitrate: 2238 kbps
Codec: FLAC
================================================================================
[teatrix.ru].t20770.torrent 
Торрент: Зарегистрирован [ 2016-03-20 00:40 ] · 4D467F927BCEB565735C2178A2C474AB207632DE

Скачать .torrent

Скачать

15 KB

Статус: проверено
Скачан: 1 раз
Размер: 1.32 GB
terms.php



Быстрый ответ

Имя:

      
Для отправки сообщений необходимо включить JavaScript
Показать сообщения:    

Текущее время: 05-Дек 15:32

Часовой пояс: UTC + 3


Вы можете начинать темы
Вы можете отвечать на сообщения
Вы не можете редактировать свои сообщения
Вы не можете удалять свои сообщения
Вы не можете голосовать в опросах
Вы не можете прикреплять файлы к сообщениям
Вы можете скачивать файлы