[TR24][SM][OF] Rachmaninov (Рахманинов) & Stravinsky (Стравинский) - Symphonic Dances & Symphony in three movements - Valery Gergiev & London Symphony Orchestra - 2012 (Classical)


Статистика раздачи [Обновить пиров]
Размер:  529 MB   |    Зарегистрирован:  8 месяцев 14 дней   |    Скачан:  0 раз

Полного источника не было: Никогда

 
   
 
 
 

[Цитировать]

·
·
Валерий Гергиев
London Symphony Orchestra
Жанр: Miscellaneous
Носитель: Official Digital Download
Год издания диска: 2012
Издатель(лейбл): LSO Live
Номер по каталогу: LSO0688
Продолжительность: 58:33
Наличие сканов в содержимом раздачи: booklet, inlay, sleeve
Контейнер: FLAC (*.flac)
Разрядность: 24/48
Количество каналов: 2.0
Формат: tracks
Источник: bowers-wilkins.com
Pелизер: WEB (thanks to the original customer)
LSO Live

Треклист

Sergei Rachmaninov (1873-1943)
Symphonic Dances Op.45 (1940)01 Non allegro 12:56
02 Andante con moto (Tempo di valse) 9:35
03 Lento assai - Allegro vivace - Lento assai. Come prima - Allegro vivace 13:49
Igor Stravinsky (1882-1971)
Symphony in Three Movements (1942-1945)
04 Crotchet = 160 10:07
05 Andante - Più mosso - Tempo I 5:45
06 Con moto - Più presto - Meno mosso (Con moto) 6:21

Dynamic Range Meter

foobar2000 1.2.6 / Dynamic Range Meter 1.1.1
log date: 2015-03-29 13:59:44
--------------------------------------------------------------------------------
Analyzed: London Symphony Orchestra, Valery Gergiev / Rachmaninov: Symphonic Dances; Stravinsky: Symphony in three movements
--------------------------------------------------------------------------------
DR Peak RMS Duration Track
--------------------------------------------------------------------------------
DR20 0.00 dB -27.33 dB 12:58 01-Symphonic Dances Op.45 - I. Non allegro – Lento – Tempo I
DR17 -1.14 dB -29.50 dB 9:35 02-Symphonic Dances Op.45 - II. Andante con moto: Tempo di valse
DR19 0.00 dB -25.82 dB 13:49 03-Symphonic Dances Op.45 - III. Lento assai – Allegro vivace – Lento assai – Allegro vivace
DR17 -1.91 dB -26.30 dB 10:07 04-Symphony in three movements - I. Crotchet = 160
DR17 -12.91 dB -38.14 dB 5:44 05-Symphony in three movements - II. Andante – Più mosso – Tempo I
DR17 0.00 dB -24.87 dB 6:24 06-Symphony in three movements - III. Con moto – Più presto – Meno mosso: Con moto
--------------------------------------------------------------------------------
Number of tracks: 6
Official DR value: DR18
Samplerate: 48000 Hz
Channels: 2
Bits per sample: 24
Bitrate: 1289 kbps
Codec: FLAC
================================================================================
[teatrix.ru].t20771.torrent 
Торрент: Зарегистрирован [ 2016-03-20 00:40 ] · B5C13BA9DC6B21CC62A41F07EC3AF269DCC41CFB

Скачать .torrent

Скачать

12 KB

Статус: проверено
Скачан: 0 раз
Размер: 529 MB
terms.php



Быстрый ответ

Имя:

      
Для отправки сообщений необходимо включить JavaScript
Показать сообщения:    

Текущее время: 03-Дек 22:47

Часовой пояс: UTC + 3


Вы можете начинать темы
Вы можете отвечать на сообщения
Вы не можете редактировать свои сообщения
Вы не можете удалять свои сообщения
Вы не можете голосовать в опросах
Вы не можете прикреплять файлы к сообщениям
Вы можете скачивать файлы