[TR24][SM][OF] Camargo Guarnieri - Symphonies Nos.1 & 4, Abertura Festiva - John Neschling & Sao Paulo Symphony Orchestra - 2003 (Classical)


Статистика раздачи [Обновить пиров]
Размер:  520 MB   |    Зарегистрирован:  8 месяцев 16 дней   |    Скачан:  0 раз

Полного источника не было: Никогда

 
   
 
 
 

[Цитировать]

Camargo Guarnieri - Symphonies Nos.1 & 4, Abertura Festiva / John Neschling & Sao Paulo Symphony Orchestra
Формат записи/Источник записи: [TR24][SM][OF]
Наличие водяных знаков: Да
Издание: BIS-1290
Год издания/переиздания диска: 2003
Жанр: Classical
Издатель(лейбл): BIS Records
Продолжительность: 58:06
Наличие сканов в содержимом раздачи: Да
Треклист:
Symphony No.1 (1944)
01 I. Rude 09:17
02 II. Profundo 13:22
03 III. Radioso 10:15
Abertura Festiva (1971)
04 Abertura Festiva (1971) 06:15
Symphony No.4, 'Brasília' (1963)
05 I. Allegro energico 04:27
06 II. Lento e tragico 08:43
07 III. Energico trionfante 04:34
Контейнер: FLAC (*.flac)
Тип рипа: tracks
Разрядность: 24/44,1
Формат: WAV (flac.ape.wv)
Количество каналов: 2.0
Источник (релизер): http://www.eclassical.com/composers/guarnieri-mozart-camargo/guarnieri-symphonies-nos1-4.html

Состав

São Paulo Symphony Orchestra
John Neschling, conductor

Dynamic Range Meter

foobar2000 1.2.6 / Dynamic Range Meter 1.1.1
log date: 2015-03-29 14:16:58
--------------------------------------------------------------------------------
Analyzed: São Paulo Symphony Orchestra, John Neschling / Guarnieri: Symphonies Nos.1 & 4
--------------------------------------------------------------------------------
DR Peak RMS Duration Track
--------------------------------------------------------------------------------
DR16 0.00 dB -21.24 dB 9:21 01-Symphony No.1 (1944) - I. Rude
DR16 0.00 dB -24.07 dB 13:27 02-Symphony No.1 (1944) - II. Profundo
DR16 -1.56 dB -22.81 dB 10:29 03-Symphony No.1 (1944) - III. Radioso
DR15 0.00 dB -21.80 dB 6:26 04-Abertura Festiva (1971) - Abertura Festiva (1971)
DR14 0.00 dB -19.10 dB 4:30 05-Symphony No.4, 'Brasília' (1963) - I. Allegro energico
DR17 -1.93 dB -26.02 dB 8:45 06-Symphony No.4, 'Brasília' (1963) - II. Lento e tragico
DR15 0.00 dB -21.12 dB 5:06 07-Symphony No.4, 'Brasília' (1963) - III. Energico trionfante
--------------------------------------------------------------------------------
Number of tracks: 7
Official DR value: DR16
Samplerate: 44100 Hz
Channels: 2
Bits per sample: 24
Bitrate: 1262 kbps
Codec: FLAC
================================================================================
[teatrix.ru].t20772.torrent 
Торрент: Зарегистрирован [ 2016-03-20 00:40 ] · 16A73A24F0718F862BA81CE752E5D23EB9697A8A

Скачать .torrent

Скачать

11 KB

Статус: проверено
Скачан: 0 раз
Размер: 520 MB
terms.php



Быстрый ответ

Имя:

      
Для отправки сообщений необходимо включить JavaScript
Показать сообщения:    

Текущее время: 05-Дек 05:29

Часовой пояс: UTC + 3


Вы можете начинать темы
Вы можете отвечать на сообщения
Вы не можете редактировать свои сообщения
Вы не можете удалять свои сообщения
Вы не можете голосовать в опросах
Вы не можете прикреплять файлы к сообщениям
Вы можете скачивать файлы