[TR24][OF] Georges Bizet - Carmen [1964] (Maria Callas, Nicolai Gedda, Andrea Guiot, Robert Massard; Orchestre du Theatre National de l’Opera de Paris, Georges Pretre) - 2014 (Classical, Opera)


Статистика раздачи [Обновить пиров]
Размер:  2.8 GB   |    Зарегистрирован:  8 месяцев 16 дней   |    Скачан:  3 раза

Полного источника не было: 15 дней

 
   
 
 
 

[Цитировать]

MARIA CALLASCARMENby Georges Bizet- Год издания: 2014
Жанр: Classical, Opera
Издатель (лейбл): Warner Classics
Продолжительность: 02:26:52
Наличие сканов: Covers, Digital Booklet
-Контейнер: FLAC (*.flac)
Тип рипа: tracks
Разрядность: 24bit / 96kHz
Количество каналов: 2.0
- -Georges Bizet (1838-1875)
Carmen - opera in four acts
Libretto: Henri Meilhac & Ludovic Halévy

-
Maria Callas (Carmen)
Nicolai Gedda (Don José)
Andréa Guiot (Micaëla)
Robert Massard (Escamillo)
Nadine Sautereau (Frasquita)
Jane Berbié (Mercédès)
Jean-Paul Vauquelin (Le Dancaïre)
Jacques Pruvost (Le Remendado)
Claude Cales (Moralès)
Jacques Mars (Zuniga)
Chœurs René Duclos
Chorus master: Jean Laforge
Chœurs d’enfants Jean Pesneaud
Orchestre du Théâtre National de l’Opéra de Paris
Georges Prêtre

Recorded July 6-20, 1964, Salle Wagram, Paris
-
ТреклистPrelude
01.Prelude (2:16)
Act 1
02. "Sur la place" (Chorus, Moralès, Micaela) (7:23)
03. "Avec la garde montante" (Children's Chorus, Moralès, José) (3:54)
04. "C'est bien là, n'est-ce pas?" (José, Zuñiga) (1:14)
05. "La cloche a sonné....Dans l'air" (Chorus) (4:34)
06. "L'amour est un oiseau rebelle" (Carmen, Chorus) [Habanera] (4:18)
07. "Carmen! sur tes pas" (Chorus, Carmen, José) (1:29)
08. "Quels regardes! Quelle effronterie!" (Carmen, José) (0:56)
09. "Parle-moi de ma mère!" (José, Micaela) (8:57)
10. "Reste là, maintenant, pendant que je lirai" (José, Micaela) (1:32)
11. "Que se passe-t-il donc là-bas?...Au secours!" (Zuñiga, Chorus) (3:00)
12. "Mon officier, c'était une querelle" (José, Zuñiga, Carmen) (3:44)
13. "Près des ramparts de Séville" (Carmen, José) (4:32)
14. "Voici l'ordre; partez" (Zuñiga, Carmen) (2:06)
15. Entr'acte (1:42)
Act 2
16. "Les tringles des sistres tintaient" (Camen, Frasquita, Mercédès) (4:18)
17. "Messieurs, Pastia me dit" (Frasquita, Zuñiga, Camen, Mercédès) (0:57)
18. "Vivat! vivat le Toréro!" (Chorus, Zuñiga) (1:10)
19. C"Votre toast, je peux vous le rendre" (Escamillo, Chorus) (4:49)
20. "La belle, un mot" (Escamillo, Carmen, Zuñiga) (1:34)
21. "Eh bien! vite, quelles nouvelles?.....Nous avons en tête un affaire" (Carmen, Frasquita, Mercédès, Dancaïre, Remendado, Chorus) (4:44)
22. "Mais qui donc attends-tu?" (Dancaïre, Carmen, Remendado) (0:25)
23. "Halte là!" (José, Carmen, Frasquita, Mercédès, Dancaïre, Remendado) (1:32)
24. "Enfin c'est toi!...Tout doux, Monsieur" (Carmen, José) (5:52)
25. "La fleur que tu m'avais jetée...Non, tu ne m'aimes pas" (Carmen, José) (7:48)
26. "Holà Carmen!" (Zuñiga, José, Carmen, Dancaïre, Remendado) (4:59)
27. Entr'acte (3:00)
Act 3
28. "Ecoute, écoute, compagnon, écoute" (Chorus, Dancaïre, Remendado, José, Carmen, Mercédès, Frasquita) (4:02)
29. "Reposons-nous une heure ici, mes camarades" (Dancaïre, Carmen, José) (2:16)
30. "Mêlons! Coupons!" (Frasquita, Mercédès, Carmen) (6:51)
31. "Eh bien?" (Carmen, Dancaïre, Frasquita) (0:38)
32. "Quant au douanier, c'est notre affaire" (Carmen, Mercédès, Frasquita) (2:49)
33. "C'est des contrebandiers....Je dis, que rien ne m'épouvante" (Micaëla) (5:50)
34. "Je ne me trompe pas" (Micaëla) (0:28)
35. "Quelques lignes plus bas" (Escamillo, José, Carmen, Dancaïre, Micaëla, Frasquita, Mercédès, Remendado, Chorus) (11:32)
36. Entr'acte (2:04)
Act 4
37. "A deux cuartos!" (Chorus, Zuñiga) (1:56)
38. "Les voici! voici la quadrille!" (Chorus, Escamillo, Carmen, Frasquita) (6:52)
39. "C'est toi!...Viva! viva! la course est belle!" (Carmen, José, Chorus) (8:48)

О релизе


Towards the end of Callas’s career, there were many rumours that she was planning to perform Carmen on stage. This was never to be, but Carmen became her penultimate complete recording of an opera – and her only complete recording of a French opera. With Georges Prêtre, one of her favoured conductors, and the ever-stylish Nicolai Gedda as her Don José, she captured every facet of the role. As Gramophone said when the set was first released: ‘Hers is a Carmen to haunt you.’
„Maria Callas never sang Carmen on-stage, but the role seems custom-made for her strengths -- Carmen is fiery, volatile, infuriating, seductive -- and Callas is such a superb singing actress that she conveys the character's complexity with rare effectiveness. The critical acclaim and public affection for Callas' Carmen put it very high on any list of preferred versions of the opera. She has a terrific supporting cast, including Nicolai Gedda who is in excellent voice and who makes a believable, tragic Don José, a performance that has been deemed among the finest of his career. Andréa Guiot is a sweet Micaëla, and the rest of the cast is strong. Georges Prêtre leads l'Orchestre du Théâtre Nationale de l'Opéra and the Choeurs René Duclos in an exciting, idiomatic reading of the opera. EMI's sound is clean and present.“ (AMG)

ОтчётыДинамический диапазон

foobar2000 1.2.2 / Dynamic Range Meter 1.1.1
log date: 2015-03-29 00:40:41
--------------------------------------------------------------------------------
Analyzed: Andrea Guiot, Choeurs Rene Duclos, Orchestre de l'Opéra National de Paris & Georges Prêtre / Bizet: Carmen (1964) (1)
Andrea Guiot, Orchestre de l'Opéra National de Paris & Georges Prêtre / Bizet: Carmen (1964) (2-3)
Choeurs Rene Duclos, Orchestre de l'Opéra National de Paris & Georges Prêtre / Bizet: Carmen (1964) (4-7)
Maria Callas, Choeurs Rene Duclos, Orchestre de l'Opéra National de Paris & Georges Prêtre / Bizet: Carmen (1964) (8)
Maria Callas, Jean-paul Vauquelin, Jacques Pruvost, Orchestre de l'Opéra National de Paris & Georges Prêtre / Bizet: Carmen (1964) (9)
Maria Callas, Nadine Sautereau, Jane Berbié, Jean-paul Vauquelin, Jacques Pruvost, Orchestre de l'Opéra National de Paris & Georges Prêtre / Bizet: Carmen (1964) (10)
Maria Callas, Nadine Sautereau, Jane Berbié, Orchestre de l'Opéra National de Paris & Georges Prêtre / Bizet: Carmen (1964) (11-14)
Maria Callas, Nadine Sautereau, Jean-paul Vauquelin, Orchestre de l'Opéra National de Paris & Georges Prêtre / Bizet: Carmen (1964) (15)
Maria Callas, Nicolai Gedda, Andrea Guiot, Robert Massard, Nadine Sautereau, Jane Berbié, Jean-paul Vauquelin, Jacques Pruvost, Choeurs Rene Duclos, Orchestre de l'Opéra National de Paris & Georges Prêtre / Bizet: Carmen (1964) (16)
Maria Callas, Nicolai Gedda, Choeurs Rene Duclos, Orchestre de l'Opéra National de Paris & Georges Prêtre / Bizet: Carmen (1964) (17-18)
Maria Callas, Nicolai Gedda, Jane Berbié, Jean-paul Vauquelin, Jacques Pruvost, Orchestre de l'Opéra National de Paris & Georges Prêtre / Bizet: Carmen (1964) (19)
Maria Callas, Nicolai Gedda, Jane Berbié, Nadine Sautereau, Jean-paul Vauquelin, Maurice Maievski, Choeurs Rene Duclos, Orchestre de l'Opéra National de Paris & Georges Prêtre / Bizet: Carmen (1964) (20)
Maria Callas, Nicolai Gedda, Jean-paul Vauquelin, Maurice Maievski, Orchestre de l'Opéra National de Paris & Georges Prêtre / Bizet: Carmen (1964) (21)
Maria Callas, Nicolai Gedda, Jean-paul Vauquelin, Orchestre de l'Opéra National de Paris & Georges Prêtre / Bizet: Carmen (1964) (22)
Maria Callas, Nicolai Gedda, Orchestre de l'Opéra National de Paris & Georges Prêtre / Bizet: Carmen (1964) (23-26)
Maria Callas, Orchestre de l'Opéra National de Paris & Georges Prêtre / Bizet: Carmen (1964) (27)
Maria Callas, Robert Massard, Nadine Sautereau, Choeurs Rene Duclos, Orchestre de l'Opéra National de Paris & Georges Prêtre / Bizet: Carmen (1964) (28)
Maria Callas, Robert Massard, Orchestre de l'Opéra National de Paris & Georges Prêtre / Bizet: Carmen (1964) (29)
Nicolai Gedda, Andrea Guiot, Orchestre de l'Opéra National de Paris & Georges Prêtre / Bizet: Carmen (1964) (30-31)
Nicolai Gedda, Choeurs Rene Duclos, Orchestre de l'Opéra National de Paris & Georges Prêtre / Bizet: Carmen (1964) (32)
Nicolai Gedda, Maria Callas, Orchestre de l'Opéra National de Paris & Georges Prêtre / Bizet: Carmen (1964) (33)
Nicolai Gedda, Orchestre de l'Opéra National de Paris & Georges Prêtre / Bizet: Carmen (1964) (34)
Orchestre de l'Opéra National de Paris & Georges Prêtre / Bizet: Carmen (1964) (35-38)
Robert Massard, Choeurs Rene Duclos, Orchestre de l'Opéra National de Paris & Georges Prêtre / Bizet: Carmen (1964) (39)
--------------------------------------------------------------------------------
DR Peak RMS Duration Track
--------------------------------------------------------------------------------
DR15 -0.69 dB -21.26 dB 7:23 ?-Carmen, Act 1: "Sur la place" (Chorus, Moralès, Micaela)
DR13 -2.19 dB -21.88 dB 5:50 ?-Carmen, Act 3: "C'est des contrebandiers....Je dis, que rien ne m'épouvante" (Micaëla)
DR13 -2.95 dB -20.88 dB 0:28 ?-Carmen, Act 3: "Je ne me trompe pas" (Micaëla)
DR14 -3.84 dB -23.83 dB 4:34 ?-Carmen, Act 1: "La cloche a sonné....Dans l'air" (Chorus)
DR10 -1.94 dB -16.91 dB 3:00 ?-Carmen, Act 1: "Que se passe-t-il donc là-bas?...Au secours!" (Zuñiga, Chorus)
DR11 -2.41 dB -18.80 dB 1:10 ?-Carmen, Act 2: "Vivat! vivat le Toréro!" (Chorus, Zuñiga)
DR12 -0.85 dB -18.14 dB 1:56 ?-Carmen, Act 4: "A deux cuartos!" (Chorus, Zuñiga)
DR12 -2.53 dB -21.26 dB 4:18 ?-Carmen, Act 1: "L'amour est un oiseau rebelle" (Carmen, Chorus) [Habanera]
DR9 -4.34 dB -24.35 dB 0:25 ?-Carmen, Act 2: "Mais qui donc attends-tu?" (Dancaïre, Carmen, Remendado)
DR13 -0.99 dB -21.05 dB 4:44 ?-Carmen, Act 2: "Eh bien! vite, quelles nouvelles?.....Nous avons en tête un affaire" (Carmen, Frasquita, Mercédès, Dancaïre, Remendado, Chorus)
DR12 -0.10 dB -17.84 dB 4:18 ?-Carmen, Act 2: "Les tringles des sistres tintaient" (Camen, Frasquita, Mercédès)
DR14 -1.83 dB -21.40 dB 0:57 ?-Carmen, Act 2: "Messieurs, Pastia me dit" (Frasquita, Zuñiga, Camen, Mercédès)
DR13 -0.60 dB -21.42 dB 6:51 ?-Carmen, Act 3: "Mêlons! Coupons!" (Frasquita, Mercédès, Carmen)
DR12 -1.66 dB -18.70 dB 2:49 ?-Carmen, Act 3: "Quant au douanier, c'est notre affaire" (Carmen, Mercédès, Frasquita)
DR12 -6.45 dB -24.91 dB 0:38 ?-Carmen, Act 3: "Eh bien?" (Carmen, Dancaïre, Frasquita)
DR14 -1.52 dB -19.84 dB 11:32 ?-Carmen, Act 3: "Quelques lignes plus bas" (Escamillo, José, Carmen, Dancaïre, Micaëla, Frasquita, Mercédès, Remendado, Chorus)
DR12 -1.29 dB -20.18 dB 1:29 ?-Carmen, Act 1: "Carmen! sur tes pas" (Chorus, Carmen, José)
DR13 -0.30 dB -18.78 dB 8:48 ?-Carmen, Act 4: "C'est toi!...Viva! viva! la course est belle!" (Carmen, José, Chorus)
DR14 -6.43 dB -26.08 dB 1:32 ?-Carmen, Act 2: "Halte là!" (José, Carmen, Frasquita, Mercédès, Dancaïre, Remendado)
DR14 -1.98 dB -23.15 dB 4:02 ?-Carmen, Act 3: "Ecoute, écoute, compagnon, écoute" (Chorus, Dancaïre, Remendado, José, Carmen, Mercédès, Frasquita)
DR11 -0.85 dB -17.91 dB 4:59 ?-Carmen, Act 2: "Holà Carmen!" (Zuñiga, José, Carmen, Dancaïre, Remendado)
DR15 -4.43 dB -25.96 dB 2:16 ?-Carmen, Act 3: "Reposons-nous une heure ici, mes camarades" (Dancaïre, Carmen, José)
DR12 -5.67 dB -23.14 dB 0:56 ?-Carmen, Act 1: "Quels regardes! Quelle effronterie!" (Carmen, José)
DR14 -1.84 dB -23.02 dB 4:32 ?-Carmen, Act 1: "Près des ramparts de Séville" (Carmen, José)
DR13 -1.33 dB -20.24 dB 5:52 ?-Carmen, Act 2: "Enfin c'est toi!...Tout doux, Monsieur" (Carmen, José)
DR13 -0.39 dB -19.57 dB 7:48 ?-Carmen, Act 2: "La fleur que tu m'avais jetée...Non, tu ne m'aimes pas" (Carmen, José)
DR12 0.00 dB -19.82 dB 2:06 ?-Carmen, Act 1: "Voici l'ordre; partez" (Zuñiga, Carmen)
DR11 -0.13 dB -16.95 dB 6:52 ?-Carmen, Act 4: "Les voici! voici la quadrille!" (Chorus, Escamillo, Carmen, Frasquita)
DR13 -3.95 dB -23.70 dB 1:34 ?-Carmen, Act 2: "La belle, un mot" (Escamillo, Carmen, Zuñiga)
DR14 -2.67 dB -22.90 dB 8:57 ?-Carmen, Act 1: "Parle-moi de ma mère!" (José, Micaela)
DR12 -4.17 dB -25.06 dB 1:32 ?-Carmen, Act 1: "Reste là, maintenant, pendant que je lirai" (José, Micaela)
DR15 -2.58 dB -24.30 dB 3:54 ?-Carmen, Act 1: "Avec la garde montante" (Children's Chorus, Moralès, José)
DR15 -1.72 dB -24.13 dB 3:44 ?-Carmen, Act 1: "Mon officier, c'était une querelle" (José, Zuñiga, Carmen)
DR13 -3.17 dB -22.93 dB 1:14 ?-Carmen, Act 1: "C'est bien là, n'est-ce pas?" (José, Zuñiga)
DR13 -0.01 dB -15.79 dB 2:16 ?-Carmen: Prelude
DR14 -8.83 dB -30.07 dB 1:42 ?-Carmen, Act 1: Entr'acte
DR12 -14.22 dB -31.52 dB 3:00 ?-Carmen, Act 2: Entr'acte
DR13 -1.01 dB -19.92 dB 2:04 ?-Carmen, Act 3: Entr'acte
DR13 -0.91 dB -19.36 dB 4:49 ?-Carmen, Act 2: "Votre toast, je peux vous le rendre" (Escamillo, Chorus)
--------------------------------------------------------------------------------
Number of tracks: 39
Official DR value: DR13
Samplerate: 96000 Hz
Channels: 2
Bits per sample: 24
Bitrate: 2774 kbps
Codec: FLAC
================================================================================

Скриншот спектра частот

Доп. информация

При скачивании, если необходимо, переименуйте папку, в которой будет находиться альбомБольшая просьба к скачавшим поддерживать раздачу! Помогайте другим, ведь вам тоже может понадобиться помощь!Не забываем говорить "Спасибо"!Комментарии приветствуются!

Maria Callas Hi-Res
[teatrix.ru].t20781.torrent 
Торрент: Зарегистрирован [ 2016-03-20 00:40 ] · F1728769E598B21514923CAEFF3C94C03CA87144

Скачать .torrent

Скачать

18 KB

Статус: проверено
Скачан: 3 раз
Размер: 2.8 GB
terms.php



Быстрый ответ

Имя:

      
Для отправки сообщений необходимо включить JavaScript
Показать сообщения:    

Текущее время: 05-Дек 17:36

Часовой пояс: UTC + 3


Вы можете начинать темы
Вы можете отвечать на сообщения
Вы не можете редактировать свои сообщения
Вы не можете удалять свои сообщения
Вы не можете голосовать в опросах
Вы не можете прикреплять файлы к сообщениям
Вы можете скачивать файлы