[TR24][SM][OF] Tchaikovsky/Чайковский - The Seasons & Six Morceaux - Pavel Kolesnikov/Колесников - 2014 (Classical)


Статистика раздачи [Обновить пиров]
Размер:  1.1 GB   |    Зарегистрирован:  8 месяцев 13 дней   |    Скачан:  0 раз

Полного источника не было: Никогда

 
   
 
 
 

[Цитировать]

Pyotr Ilyich Tchaikovsky (1840-1893)
Формат записи/Источник записи: [TR24][SM][OF]
Наличие водяных знаков: Нет
Издание: CDA68028
Год издания/переиздания диска: 2014
Жанр: Classical
Издатель(лейбл): Hyperion Records
Продолжительность: 01:15:28
Наличие сканов в содержимом раздачи: Да
Треклист:
The seasons Op 37b
1 No 1 January, 'By the fireside': Moderato semplice ma espressivo [5'27]
2 No 2 February, 'Carnival': Allegro giusto [2'35]
3 No 3 March, 'The lark's song': Andantino espressivo [2'40]
4 No 4 April, 'The snowdrop': Allegretto con moto e un poco rubato [2'20]
5 No 5 May, 'White nights of May': Andantino [4'39]
6 No 6 June, 'Barcarolle': Andante cantabile [5'35]
7 No 7 July, 'Reaper's song': Allegro moderato con moto [1'43]
8 No 8 August, 'Harvest': Allegro vivace [3'29]
9 No 9 September, 'The hunt': Allegro non troppo [2'37]
10 No 10 October, 'Autumn song': Andante doloroso e molto cantabile [5'58]
11 No 11 November, 'Troika': Allegro moderato [2'52]
12 No 12 December, 'Christmas': Tempo di valse [4'16]
Six morceaux Op 19
13 Rêverie du soir: Andante espressivo [5'31]
14 Scherzo humoristique: Allegro vivacissimo [3'57]
15 Feuillet d'album: Allegretto simplice [1'50]
16 Nocturne: Andante sentimentale [4'09]
17 Capriccioso: Allegretto simplice – Allegro vivacissimo – Tempo I [4'09]
18 Thème original et variations: Andante non tanto – Variations 1-12 [11'41]
Контейнер: FLAC (*.flac)
Тип рипа: tracks
Разрядность: 24/96
Формат: WAV (flac.ape.wv)
Количество каналов: 2.0
Источник (релизер): http://www.hyperion-records.co.uk/dc.asp?dc=D_CDA68028
Исполнитель: Pavel Kolesnikov, piano

Dynamic Range Meter

foobar2000 1.2.6 / Dynamic Range Meter 1.1.1
log date: 2015-03-29 20:13:02
--------------------------------------------------------------------------------
Analyzed: Pavel Kolesnikov / Tchaikovsky: The Seasons, 6 Morceaux
--------------------------------------------------------------------------------
DR Peak RMS Duration Track
--------------------------------------------------------------------------------
DR14 -9.57 dB -29.42 dB 5:27 01-The seasons, Op 37b - No 01. Janvier 'Au coin du feu' Moderato semplice ma espressivo
DR12 -2.63 dB -19.02 dB 2:35 02-The seasons, Op 37b - No 02. Fevrier 'Carnaval' Allegro giusto
DR13 -14.65 dB -33.25 dB 2:40 03-The seasons, Op 37b - No 03. Mars 'Chant de l'alouette' Andantino espressivo
DR11 -12.46 dB -29.37 dB 2:20 04-The seasons, Op 37b - No 04. Avril 'Perce-neige' Allegretto con moto e un poco rubato
DR16 -7.95 dB -30.68 dB 4:39 05-The seasons, Op 37b - No 05. Mai 'Les nuits de mai' Andantino
DR16 -5.00 dB -27.67 dB 5:35 06-The seasons, Op 37b - No 06. Juin 'Barcarolle' Andante cantabile
DR13 -2.13 dB -20.32 dB 1:43 07-The seasons, Op 37b - No 07. Juillet 'Chant du faucheur' Allegro moderato con moto
DR13 -2.14 dB -20.48 dB 3:29 08-The seasons, Op 37b - No 08. Aout 'La moisson' Allegro vivace
DR12 -0.36 dB -16.22 dB 2:37 09-The seasons, Op 37b - No 09. Septembre 'La chasse' Allegro non troppo
DR14 -7.28 dB -29.65 dB 5:58 10-The seasons, Op 37b - No 10. Octobre 'Chant d'automne' Andante doloroso e molto cantabile
DR13 -4.65 dB -23.19 dB 2:52 11-The seasons, Op 37b - No 11. Novembre 'Troika' Allegro moderato
DR16 -2.59 dB -25.89 dB 4:16 12-The seasons, Op 37b - No 12. Decembre 'Noel' Tempo di valse
DR12 -10.85 dB -30.27 dB 5:31 13-Six morceaux, Op 19 - No 1. Reverie du soir, Andante espressivo
DR14 -0.98 dB -20.35 dB 3:57 14-Six morceaux, Op 19 - No 2. Scherzo humoristique, Allegro vivacissimo
DR12 -6.18 dB -27.76 dB 1:50 15-Six morceaux, Op 19 - No 3. Feuillet d'album, Allegretto simplice
DR12 -10.26 dB -30.31 dB 4:09 16-Six morceaux, Op 19 - No 4. Nocturne, Andante sentimentale
DR16 -0.85 dB -24.42 dB 4:09 17-Six morceaux, Op 19 - No 5. Capriccioso, Allegretto simplice - Allegro vivacissimo - Tempo I
DR14 -0.20 dB -20.64 dB 11:41 18-Six morceaux, Op 19 - No 6. Theme original et variations, Andante non tanto - Variations 1-12
--------------------------------------------------------------------------------
Number of tracks: 18
Official DR value: DR13
Samplerate: 96000 Hz
Channels: 2
Bits per sample: 24
Bitrate: 2102 kbps
Codec: FLAC
================================================================================
[teatrix.ru].t20786.torrent 
Торрент: Зарегистрирован [ 2016-03-20 00:40 ] · 7D30FBDFBF2A30F7FDBBA7B45BBCC861201D8A6F

Скачать .torrent

Скачать

14 KB

Статус: проверено
Скачан: 0 раз
Размер: 1.1 GB
terms.php



Быстрый ответ

Имя:

      
Для отправки сообщений необходимо включить JavaScript
Показать сообщения:    

Текущее время: 02-Дек 21:09

Часовой пояс: UTC + 3


Вы можете начинать темы
Вы можете отвечать на сообщения
Вы не можете редактировать свои сообщения
Вы не можете удалять свои сообщения
Вы не можете голосовать в опросах
Вы не можете прикреплять файлы к сообщениям
Вы можете скачивать файлы