(Classical) Christopher Rouse - Iscariot; Clarinet Concerto; Symphony No.1 - Martin Fröst (Frost), Royal Stockholm Philharmonic Orchestra, Alan Gilbert - 2008, FLAC (image+.cue) lossless


 

[Цитировать]

Christopher Rouse - Iscariot; Clarinet Concerto; Symphony No.1 - Martin Fröst, Royal Stockholm Philharmonic Orchestra, Alan Gilbert
Жанр: Classical
Страна-производитель диска: Sweden
Год издания диска: 2008
Издатель (лейбл): BIS
Номер по каталогу: BIS-CD-1386
Дата записи: 2005, 2006
Аудиокодек: FLAC
Тип рипа: image+.cue
Битрейт аудио: lossless
Продолжительность: 62:35
Источник: собственный рип
Наличие сканов в содержимом раздачи: да
Треклист:
Christopher Rouse (b.1949)
[1] Iscariot (1989) for chamber orchestra
[2] Clarinet Concerto (2001)
[3] Symphony No. 1 (1986)
Исполнители:
Martin Fröst clarinet
Royal Stockholm Philharmonic Orchestra
Alan Gilbert
conductor

Лог создания рипа

Exact Audio Copy V1.0 beta 3 from 29. August 2011
EAC extraction logfile from 22. March 2015, 15:24
Royal Stockholm Philharmonic Orchestra, Alan Gilbert / Rouse - Iscariot; Clarinet Concerto; Symphony No.1
Used drive : HL-DT-STDVDRAM GU70N Adapter: 0 ID: 0
Read mode : Secure
Utilize accurate stream : Yes
Defeat audio cache : Yes
Make use of C2 pointers : No
Read offset correction : 48
Overread into Lead-In and Lead-Out : No
Fill up missing offset samples with silence : Yes
Delete leading and trailing silent blocks : No
Null samples used in CRC calculations : Yes
Used interface : Native Win32 interface for Win NT & 2000
Used output format : User Defined Encoder
Selected bitrate : 128 kBit/s
Quality : High
Add ID3 tag : No
Command line compressor : C:\Program Files (x86)\Exact Audio Copy\Flac\flac.exe
Additional command line options : -V -8 -T "Date=%year%" -T "Genre=%genre%" %source%
TOC of the extracted CD
Track | Start | Length | Start sector | End sector
---------------------------------------------------------
1 | 0:00.00 | 15:40.23 | 0 | 70522
2 | 15:40.23 | 19:33.48 | 70523 | 158545
3 | 35:13.71 | 27:19.06 | 158546 | 281476
Range status and errors
Selected range
Filename C:\temp\BIS-CD-1386 - Rouse - Iscariot; Clarinet Concerto; Symphony No.1\Rouse - Iscariot; Clarinet Concerto; Symphony No.1.wav
Peak level 99.9 %
Extraction speed 5.2 X
Range quality 100.0 %
Test CRC A5B0EAC5
Copy CRC A5B0EAC5
Copy OK
No errors occurred
AccurateRip summary
Track 1 accurately ripped (confidence 2) [1FC5BD4C] (AR v1)
Track 2 accurately ripped (confidence 2) [F997A009] (AR v1)
Track 3 accurately ripped (confidence 2) [E81191AB] (AR v1)
All tracks accurately ripped
End of status report
==== Log checksum 2B68F1331C5F750D1D15C4A635A66E167250C538B0F0B6DC4FCF1D189EB9319F ====



Показать сообщения:    

Текущее время: 08-Дек 12:57

Часовой пояс: UTC + 3


Вы не можете начинать темы
Вы не можете отвечать на сообщения
Вы не можете редактировать свои сообщения
Вы не можете удалять свои сообщения
Вы не можете голосовать в опросах
Вы не можете прикреплять файлы к сообщениям
Вы не можете скачивать файлы