Роман Карцев. Зал ожидания (Иосиф Райхельгауз) [2003 г., комедия, моноспектакль, SATRip] Московский театр "Школа современной пьесы"


 

[Цитировать]

Роман Карцев. Зал ожидания Название театра: Московский театр "Школа современной пьесы".
Жанр: комедия, моноспектакль.
Год выпуска: 2003.
Продолжительность: 01:27:36.
Режиссер: народный артист России Иосиф Райхельгауз.
Исполнитель: народный артист России Роман Карцев.
О спектакле:
Изначально спектакль планировалось назвать "Зал ожидания страны".
Действие происходит в международном аэропорту: пассажиры, гул самолетов, объявления. У главного героя возникает платоническая любовь с женщиной, которая объявляет рейсы.
В спектакле есть настоящий юмор, трагические и лирические монологи, лирика с драматическим уклоном.
Роман Карцев:
"Вот я играю сегодня шесть или семь персонажей в своем моноспектакле "Зал ожидания". Тех, кто сидит в аэропорту. Грустного грузина, который говорит о войне и крови, о том, что Бога забыли. Или ростовского парня, такого шустрого, которому все равно, лететь - не лететь, он рассказывает анекдоты про Путина, Брежнева с прибаутками. Есть еще там такой псих... Который всегда в аэропорту нервничает, грозит всех пассажиров взять в заложники, если опоздает на рейс. Я сейчас боюсь играть этого персонажа, черт его знает, как над этим шутить теперь. Это сегодняшний день, мы все нынче без профессии, без привычек, без дома, без себя, мы только ждем. Мы все живем в зале ожидания."

Дополнительная информация:
Страна: Россия .
Выпущено: Студия спецпроектов и экспериментальных программ © ГТРК "Культура".
Автор: Семен Альтов.
Режиссер телеверсии: Светлана Кокотунова.
Операторы: Евгений Авдеев, Юрий Исаков, Владимир Иванов, Виктор Браздников.

Релиз

Качество видео:...SATRip
Формат:.................AVI
Видео:..720x544 (1.32:1), 25 fps, DivX Codec 6.8.3 ~2085 kbps avg, 0.21 bit/pixel
Аудио:..44.100 kHz, MPEG Layer 3, 2 ch, ~128.00 kbps avg

Отчет Media Info

General
Complete name : Roman.Karcev.Zal.ozhidaniya_Teatr.Shkola.sovremennoj.p'esy.2003.XviD.SATRip.fenixclub.avi
Format : AVI
Format/Info : Audio Video Interleave
File size : 1.36 GiB
Duration : 1h 27mn
Overall bit rate : 2 224 Kbps
Writing application : VirtualDubModRus 1.5.10.2 (build 2542/release)
Writing library : VirtualDub build 32842/release
Video
ID : 0
Format : MPEG-4 Visual
Format settings, BVOP : 1
Format settings, QPel : No
Format settings, GMC : No warppoints
Format settings, Matrix : Default (H.263)
Muxing mode : Packed bitstream
Codec ID : DX50
Codec ID/Hint : DivX 5
Duration : 1h 27mn
Bit rate : 2 086 Kbps
Width : 720 pixels
Height : 544 pixels
Display aspect ratio : 4:3
Frame rate : 25.000 fps
Color space : YUV
Chroma subsampling : 4:2:0
Bit depth : 8 bits
Scan type : Progressive
Compression mode : Lossy
Bits/(Pixel*Frame) : 0.213
Stream size : 1.28 GiB (94%)
Writing library : DivX 6.8.3-6.8.4 (UTC 2008-06-07)
Audio
ID : 1
Format : MPEG Audio
Format version : Version 1
Format profile : Layer 3
Mode : Joint stereo
Mode extension : MS Stereo
Codec ID : 55
Codec ID/Hint : MP3
Duration : 1h 27mn
Bit rate mode : Constant
Bit rate : 128 Kbps
Channel(s) : 2 channels
Sampling rate : 44.1 KHz
Compression mode : Lossy
Delay relative to video : 150ms
Stream size : 80.2 MiB (6%)
Alignment : Split accross interleaves
Interleave, duration : 40 ms (1.00 video frame)
Interleave, preload duratio : 500 ms

Скриншоты

Альтернативный хост




Показать сообщения:    

Текущее время: 08-Дек 03:16

Часовой пояс: UTC + 3


Вы не можете начинать темы
Вы не можете отвечать на сообщения
Вы не можете редактировать свои сообщения
Вы не можете удалять свои сообщения
Вы не можете голосовать в опросах
Вы не можете прикреплять файлы к сообщениям
Вы не можете скачивать файлы