[TR24][SM][OF] Franz Liszt - Fever - Claire Chevallier - 2011 (Classical)


Статистика раздачи [Обновить пиров]
Размер:  1.19 GB   |    Зарегистрирован:  8 месяцев 20 дней   |    Скачан:  0 раз

Полного источника не было: Никогда

 
   
 
 
 

[Цитировать]

Franz Liszt (1811 - 1886)
Формат записи/Источник записи: [TR24][SM][OF]
Наличие водяных знаков: Нет
Издание: LDV02
Год издания/переиздания диска: 2011
Жанр: Classical
Издатель(лейбл): La Dolce Volta
Продолжительность: 01:12:05
Наличие сканов в содержимом раздачи: Да
Треклист:
1 Andante lagrimoso (Harmonies poétiques et religieuses) 8’54
2 Mephisto-Walzer n° 1 12’26
3 La lugubre gondola n° 2 10’20
4 Saint-François d’Assise, La Prédication aux oiseaux 11’26
5 Saint-François de Paule marchant sur les flots 10’19
6 Funérailles (Harmonies poétiques et religieuses) 14’06
7 Wiegenlied 4’32
Контейнер: FLAC (*.flac)
Тип рипа: tracks
Разрядность: 24/96
Формат: WAV (flac.ape.wv)
Количество каналов: 2.0
Источник (релизер): http://www.qobuz.com/fr-fr/album/liszt-fever-claire-chevallier/3770001901213?qref=dac_6
Исполнитель: Claire Chevallier piano

Dynamic Range Meter

foobar2000 1.2.6 / Dynamic Range Meter 1.1.1
log date: 2015-03-31 15:39:53
--------------------------------------------------------------------------------
Analyzed: Claire Chevallier / Liszt_Fever
--------------------------------------------------------------------------------
DR Peak RMS Duration Track
--------------------------------------------------------------------------------
DR15 -3.09 dB -25.61 dB 8:53 01-Andante lagrimoso
DR13 -0.02 dB -17.34 dB 12:27 02-Mephisto-Walzer no1
DR16 -0.98 dB -23.68 dB 10:20 03-La lugubre gondola no2
DR16 -0.04 dB -22.30 dB 11:28 04-Saint-François d'Assise, La Prédication aux oiseaux
DR12 -0.02 dB -15.92 dB 10:20 05-Saint-François de Paule marchant sur les flots
DR13 -0.01 dB -18.26 dB 14:06 06-Funérailles
DR13 -15.00 dB -32.56 dB 4:32 07-Wiegenlied
--------------------------------------------------------------------------------
Number of tracks: 7
Official DR value: DR14
Samplerate: 96000 Hz
Channels: 2
Bits per sample: 24
Bitrate: 2138 kbps
Codec: FLAC
================================================================================
[teatrix.ru].t20794.torrent 
Торрент: Зарегистрирован [ 2016-03-20 00:43 ] · 0F651DE46070D251583FFCA61A55EB108C03DFAD

Скачать .torrent

Скачать

13 KB

Статус: проверено
Скачан: 0 раз
Размер: 1.19 GB
terms.php



Быстрый ответ

Имя:

      
Для отправки сообщений необходимо включить JavaScript
Показать сообщения:    

Текущее время: 09-Дек 12:47

Часовой пояс: UTC + 3


Вы можете начинать темы
Вы можете отвечать на сообщения
Вы не можете редактировать свои сообщения
Вы не можете удалять свои сообщения
Вы не можете голосовать в опросах
Вы не можете прикреплять файлы к сообщениям
Вы можете скачивать файлы