[TR24][SM][OF] Jean Sibelius - The Tempest, The Bard & Tapiola - Okko Kamu & Lahti Symphony Orchestra - 2011 (Classical)


Статистика раздачи [Обновить пиров]
Размер:  592 MB   |    Зарегистрирован:  8 месяцев 20 дней   |    Скачан:  0 раз

Полного источника не было: Никогда

 
   
 
 
 

[Цитировать]

Jean Sibelius (1865–1957)
Формат записи/Источник записи: [TR24][SM][OF]
Наличие водяных знаков: Нет
Издание: BIS-1945
Год издания/переиздания диска: 2011
Жанр: Classical
Издатель(лейбл): BIS Records
Продолжительность: 71:41
Наличие сканов в содержимом раздачи: booklet, inlay, sleeve
Треклист:
The Tempest – Overture, Op.109 No.1
01 Largamente molto – Largo assai 07:12
The Tempest – Suite No.1, Op.109 No.2
02 I. Der Eichbaum (The Oak Tree). Andante sostenuto 03:00
03 II. Humoreske. Allegro commodo 01:05
04 III. Calibans Lied (Caliban’s Song). Allegro commodo 01:29
05 IV. Die Herbstmänner (The Harvesters). Allegro 02:26
06 V. Canon. Allegro 02:06
07 VI. Scène. Allegretto 01:35
08 VII. Intrada – Berceuse. Largo – Andante sostenuto 02:33
09 VIII. Zwischenspiel – Ariels Lied (Entr’acte – Ariel’s Song) 02:57
10 IX. Der Sturm (The Storm). Largo – Largo assai 04:32
The Tempest – Suite No.2, Op.109 No.3
11 I. Chor der Winde (Chorus of the Winds). Largamente assai – Poco adagio 02:51
12 II. Intermezzo. Andante con moto 01:58
13 III. Tanz der Nymphen (Dance of the Nymphs). Allegretto grazioso 01:59
14 IV. Prospero. Largo 01:31
15 V. Lied I (Song I). Allegretto moderato 01:02
16 VI. Lied II (Song II). Un poco con moto 01:03
17 VII. Miranda. Allegretto 01:53
18 VIII. Die Najaden (The Naiads). Poco con moto 01:34
19 IX. Tanz-Episode (Dance Episode) 02:04
The Bard, Op.64
20 Lento assai – Largamente 07:01
Tapiola, Op.112
21 Largamente – Allegro moderato – Allegro 17:36
Контейнер: FLAC (*.flac)
Тип рипа: tracks
Разрядность: 24/44,1
Формат: WAV (flac.ape.wv)
Количество каналов: 2.0
Источник (релизер): http://www.eclassical.com/composers/sibelius-jean/sibelius-the-tempest-the-bard-tapiola.html

Состав

Lahti Symphony Orchestra (Sinfonia Lahti)
Okko Kamu conductor

Dynamic Range Meter

foobar2000 1.2.6 / Dynamic Range Meter 1.1.1
log date: 2015-04-01 00:09:10
--------------------------------------------------------------------------------
Analyzed: Lahti Symphony Orchestra, Okko Kamu / Sibelius: The Tempest, The Bard & Tapiola
--------------------------------------------------------------------------------
DR Peak RMS Duration Track
--------------------------------------------------------------------------------
DR16 -1.70 dB -24.40 dB 7:21 01-The Tempest, Overture, Op.109 No.1 - Largamente molto – Largo assai
DR12 -9.49 dB -34.51 dB 3:06 02-The Tempest, Suite No.1, Op.109 No.2 - I. Der Eichbaum (The Oak Tree). Andante sostenuto
DR10 -13.54 dB -32.81 dB 1:08 03-The Tempest, Suite No.1, Op.109 No.2 - II. Humoreske. Allegro commodo
DR15 -2.47 dB -21.83 dB 1:31 04-The Tempest, Suite No.1, Op.109 No.2 - III. Calibans Lied (Caliban’s Song). Allegro commodo
DR13 -13.76 dB -31.46 dB 2:30 05-The Tempest, Suite No.1, Op.109 No.2 - IV. Die Herbstmänner (The Harvesters). Allegro
DR15 -5.34 dB -28.95 dB 2:08 06-The Tempest, Suite No.1, Op.109 No.2 - V. Canon. Allegro
DR13 -6.70 dB -25.27 dB 1:40 07-The Tempest, Suite No.1, Op.109 No.2 - VI. Scène. Allegretto
DR13 -4.48 dB -25.41 dB 2:38 08-The Tempest, Suite No.1, Op.109 No.2 - VII. Intrada – Berceuse. Largo – Andante sostenuto
DR12 -12.80 dB -31.74 dB 3:05 09-The Tempest, Suite No.1, Op.109 No.2 - VIII. Zwischenspiel – Ariels Lied (Entr’acte – Ariel’s Song)
DR15 -2.87 dB -23.36 dB 4:46 10-The Tempest, Suite No.1, Op.109 No.2 - IX. Der Sturm (The Storm). Largo – Largo assai
DR12 -14.61 dB -34.81 dB 2:53 11-The Tempest, Suite No.2, Op.109 No.3 - I. Chor der Winde (Chorus of the Winds). Largamente assai – Poco adagio
DR13 -27.85 dB -47.10 dB 2:02 12-The Tempest, Suite No.2, Op.109 No.3 - II. Intermezzo. Andante con moto
DR12 -17.86 dB -35.21 dB 2:03 13-The Tempest, Suite No.2, Op.109 No.3 - III. Tanz der Nymphen (Dance of the Nymphs). Allegretto grazioso
DR12 -11.62 dB -31.01 dB 1:34 14-The Tempest, Suite No.2, Op.109 No.3 - IV. Prospero. Largo
DR11 -20.21 dB -36.50 dB 1:02 15-The Tempest, Suite No.2, Op.109 No.3 - V. Lied I (Song I). Allegretto moderato
DR11 -23.90 dB -39.68 dB 1:05 16-The Tempest, Suite No.2, Op.109 No.3 - VI. Lied II (Song II). Un poco con moto
DR12 -18.74 dB -36.34 dB 1:55 17-The Tempest, Suite No.2, Op.109 No.3 - VII. Miranda. Allegretto
DR13 -7.65 dB -28.60 dB 1:34 18-The Tempest, Suite No.2, Op.109 No.3 - VIII. Die Najaden (The Naiads). Poco con moto
DR16 -6.20 dB -29.80 dB 2:18 19-The Tempest, Suite No.2, Op.109 No.3 - IX. Tanz-Episode (Dance Episode)
DR18 -5.48 dB -30.40 dB 7:14 20-The Bard, Op.64 - Lento assai – Largamente
DR18 0.00 dB -25.31 dB 18:08 21-Tapiola, Op.112 - Largamente – Allegro moderato – Allegro
--------------------------------------------------------------------------------
Number of tracks: 21
Official DR value: DR13
Samplerate: 44100 Hz
Channels: 2
Bits per sample: 24
Bitrate: 1197 kbps
Codec: FLAC
================================================================================
[teatrix.ru].t20799.torrent 
Торрент: Зарегистрирован [ 2016-03-20 00:43 ] · A3DBC3BA07446027C04F1205B851D62F0795C2FE

Скачать .torrent

Скачать

15 KB

Статус: проверено
Скачан: 0 раз
Размер: 592 MB
terms.php



Быстрый ответ

Имя:

      
Для отправки сообщений необходимо включить JavaScript
Показать сообщения:    

Текущее время: 09-Дек 10:50

Часовой пояс: UTC + 3


Вы можете начинать темы
Вы можете отвечать на сообщения
Вы не можете редактировать свои сообщения
Вы не можете удалять свои сообщения
Вы не можете голосовать в опросах
Вы не можете прикреплять файлы к сообщениям
Вы можете скачивать файлы