(Opera) Wagner - Der Fliegende Hollander (Muff, Haubold, Knodt, Seiffert, Schiml - Budapest Radio Chorus / Austrian Radio Symphony Orchestra, Steinberg) - 1993, APE (image+.cue) lossless


 

[Цитировать]

Richard Wagner - Der Fliegende Hollander
Жанр: Opera
Страна-производитель диска: EU
Год издания диска: 1993
Издатель (лейбл): Naxos
Номер по каталогу: 8.660025-26
Дата записи: 1992
Аудиокодек: APE
Тип рипа: image+.cue
Битрейт аудио: lossless
Продолжительность: 69'16+68'37
Источник: собственный рип
Наличие сканов в содержимом раздачи: да
Треклист:

CD1

1. Ouverture
2. Act I No. 1: Introduktion - Hojoje! Hallojo!
3. Act I: Lied - Mit Gewitter und Sturm aus fernem Meer
4. Act I No. 2: Arie - Die Frist ist um
5. Act I: Dich frage ich, gepriesner Engel Gottes
6. Act I No. 3: Szene, Duett und Chor - He! Holla! Steuermann!
7. Act I: Durch Sturm und bosen Wind verschlagen
8. Act I: Wie Hor' ich recht Meine Tochter sein Weib
9. Act I: Wenn aus der Qualen Schreckgewalten
10. Act I: Sudwind! Sudwind!
11. Act I: Mit Gewitter und Sturm aus fernem Meer
12. Act II No. 4: Szene, Lied und Ballade - Summ und brumm, du gutes Radchen
13. Act II: Ballade - Johohoe! Johohohoe!

CD2

1. Act II: Arch! Wo weilt sie
2. Act II: Senta! Senta! Willst du mich verderben
3. Act II No. 5: Duett - Bleib, Senta! Bleib nur einen Augenblick!
4. Act II: Auf hohem Felsen lag ich traumend
5. Act II No. 6: Finale - Mein Kind, du siehst mich auf der Schwelle
6. Act II: Arie - Mogst du, mein Kind, den fremden Mann
7. Act II: Duett - Wie aus der Ferne langst vergang'ner Zeiten
8. Act II: Wirst du des Vaters Wahl nicht schelten
9. Act II: Terzett - Verzeiht! Mein Volk halt draussen sich nicht mehr
10. Act III: Entr'acte
11. Act III No. 7: Szene und Chor - Steuermann, lass die Wacht!
12. Act III: Johohoe!
13. Act III No. 8: Finale - Was musst' ich horen Gott
14. Act III: Kavatine - Willst jenes Tags du nicht mehr dich entsinnen
15. Act III: Verloren! Ach, verloren!
16. Act III: Erfahre das Geschick
Исполнители:
Richard Wagner - Der fliegende Holländer
Romantische Oper in three acts. 1841.
Libretto by the composer, after Heinrich Heine's Aus den Memoiren des Herrn von Schnabelewopski (From the Memoirs of Herr von Schnabelevopsky).
The Dutchman - Alfred Muff (Bass)
Daland, a Norwegian sea-captain - Erich Knodt (Bass),
Senta, Daland's daughter - Ingrid Haubold (Soprano)
Erik, a huntsman - Peter Seiffert (Tenor)
Steersman on Daland's ship - Jörg Hering (Tenor)
Mary, Senta's nurse - Marga Schiml (Alto)
Budapest Radio Chorus
Austrian Radio Symphony Orchestra
Conductor: Pinchas Steinberg

Лог создания рипа

CD1

Exact Audio Copy V1.0 beta 3 from 29. August 2011
EAC extraction logfile from 26. December 2014, 18:00
Wagner / Der Fliegende Holländer, Steinberg CD1
Used drive : TSSTcorpCDDVDW SE-208AB Adapter: 1 ID: 0
Read mode : Secure
Utilize accurate stream : Yes
Defeat audio cache : Yes
Make use of C2 pointers : No
Read offset correction : 6
Overread into Lead-In and Lead-Out : No
Fill up missing offset samples with silence : Yes
Delete leading and trailing silent blocks : No
Null samples used in CRC calculations : Yes
Used interface : Native Win32 interface for Win NT & 2000
Used output format : Monkey's Audio Lossless Encoder
Selected bitrate : High Lossless Compression
Quality : High
Add ID3 tag : Yes
Command line compressor : C:\Program Files (x86)\Exact Audio Copy\MAC\MAC.exe
TOC of the extracted CD
Track | Start | Length | Start sector | End sector
---------------------------------------------------------
1 | 0:00.32 | 11:31.05 | 32 | 51861
2 | 11:31.37 | 4:32.58 | 51862 | 72319
3 | 16:04.20 | 5:54.12 | 72320 | 98881
4 | 21:58.32 | 5:42.48 | 98882 | 124579
5 | 27:41.05 | 5:46.15 | 124580 | 150544
6 | 33:27.20 | 4:11.30 | 150545 | 169399
7 | 37:38.50 | 4:48.07 | 169400 | 191006
8 | 42:26.57 | 5:03.00 | 191007 | 213731
9 | 47:29.57 | 2:37.63 | 213732 | 225569
10 | 50:07.45 | 1:45.37 | 225570 | 233481
11 | 51:53.07 | 2:35.70 | 233482 | 245176
12 | 54:29.02 | 8:30.55 | 245177 | 283481
13 | 62:59.57 | 6:18.50 | 283482 | 311881
Range status and errors
Selected range
Filename D:\EAC\Wagner - Der Fliegende Holländer, Steinberg CD1.wav
Peak level 87.0 %
Extraction speed 2.2 X
Range quality 100.0 %
Test CRC 409AE0E1
Copy CRC 409AE0E1
Copy OK
No errors occurred
AccurateRip summary
Track 1 accurately ripped (confidence 6) [761FC4F5] (AR v2)
Track 2 accurately ripped (confidence 6) [9BEEC3C2] (AR v2)
Track 3 accurately ripped (confidence 6) [0FD1D944] (AR v2)
Track 4 accurately ripped (confidence 7) [57D699E1] (AR v2)
Track 5 accurately ripped (confidence 7) [F8080E34] (AR v2)
Track 6 accurately ripped (confidence 7) [6E142D01] (AR v2)
Track 7 accurately ripped (confidence 7) [128D8C3B] (AR v2)
Track 8 accurately ripped (confidence 7) [9088C931] (AR v2)
Track 9 accurately ripped (confidence 7) [3A4AB015] (AR v2)
Track 10 accurately ripped (confidence 7) [ABCCB219] (AR v2)
Track 11 accurately ripped (confidence 7) [302EDA97] (AR v2)
Track 12 accurately ripped (confidence 7) [541D0EA6] (AR v2)
Track 13 accurately ripped (confidence 7) [E5DDB8D5] (AR v2)
All tracks accurately ripped
End of status report
---- CUETools DB Plugin V2.1.3
[CTDB TOCID: XgQiontrCP8UA1eY3bPbOC2.YdI-] found, Submit result: discs with pregaps not supported in this protocol version
[53e7096a] (21/21) Differs in 0 samples @
You can use CUETools to repair this rip.
==== Log checksum CF245F7924A69FD0F7C2B42968563F05908962285460CF0EFA5C5576CEA43DF0 ====

CD2

Exact Audio Copy V1.0 beta 3 from 29. August 2011
EAC extraction logfile from 26. December 2014, 17:46
Wagner / Der Fliegende Holländer, Steinberg CD2
Used drive : TS8XDVDSTRANSCEND Adapter: 1 ID: 1
Read mode : Secure
Utilize accurate stream : Yes
Defeat audio cache : Yes
Make use of C2 pointers : No
Read offset correction : 6
Overread into Lead-In and Lead-Out : No
Fill up missing offset samples with silence : Yes
Delete leading and trailing silent blocks : No
Null samples used in CRC calculations : Yes
Used interface : Native Win32 interface for Win NT & 2000
Used output format : Monkey's Audio Lossless Encoder
Selected bitrate : High Lossless Compression
Quality : High
Add ID3 tag : Yes
Command line compressor : C:\Program Files (x86)\Exact Audio Copy\MAC\MAC.exe
TOC of the extracted CD
Track | Start | Length | Start sector | End sector
---------------------------------------------------------
1 | 0:00.33 | 1:23.25 | 33 | 6282
2 | 1:23.58 | 2:09.72 | 6283 | 16029
3 | 3:33.55 | 8:41.40 | 16030 | 55144
4 | 12:15.20 | 4:19.50 | 55145 | 74619
5 | 16:34.70 | 1:47.45 | 74620 | 82689
6 | 18:22.40 | 6:28.13 | 82690 | 111802
7 | 24:50.53 | 5:50.57 | 111803 | 138109
8 | 30:41.35 | 7:19.60 | 138110 | 171094
9 | 38:01.20 | 1:57.18 | 171095 | 179887
10 | 39:58.38 | 0:57.12 | 179888 | 184174
11 | 40:55.50 | 9:52.68 | 184175 | 228642
12 | 50:48.43 | 3:30.52 | 228643 | 244444
13 | 54:19.20 | 2:29.00 | 244445 | 255619
14 | 56:48.20 | 3:10.03 | 255620 | 269872
15 | 59:58.23 | 2:38.40 | 269873 | 281762
16 | 62:36.63 | 6:02.05 | 281763 | 308917
Range status and errors
Selected range
Filename D:\EAC\Wagner - Der Fliegende Holländer, Steinberg CD2.wav
Peak level 89.8 %
Extraction speed 3.4 X
Range quality 100.0 %
Test CRC E711BCE3
Copy CRC E711BCE3
Copy OK
No errors occurred
AccurateRip summary
Track 1 accurately ripped (confidence 17) [214DE170] (AR v2)
Track 2 accurately ripped (confidence 17) [15F68BA4] (AR v2)
Track 3 accurately ripped (confidence 17) [9964441D] (AR v2)
Track 4 accurately ripped (confidence 17) [C1BD4824] (AR v2)
Track 5 accurately ripped (confidence 17) [87FD24CC] (AR v2)
Track 6 accurately ripped (confidence 17) [FE6B53CC] (AR v2)
Track 7 accurately ripped (confidence 17) [24011B17] (AR v2)
Track 8 accurately ripped (confidence 17) [31BA8ECC] (AR v2)
Track 9 accurately ripped (confidence 17) [086D4907] (AR v2)
Track 10 accurately ripped (confidence 17) [5A65A238] (AR v2)
Track 11 accurately ripped (confidence 17) [3074F258] (AR v2)
Track 12 accurately ripped (confidence 17) [DD5F7F14] (AR v2)
Track 13 accurately ripped (confidence 17) [7A3E1F2E] (AR v2)
Track 14 accurately ripped (confidence 17) [EB098EBC] (AR v2)
Track 15 accurately ripped (confidence 17) [04BF946A] (AR v2)
Track 16 accurately ripped (confidence 16) [F5A8FDC7] (AR v2)
All tracks accurately ripped
End of status report
---- CUETools DB Plugin V2.1.3
[CTDB TOCID: YR0Hcu.O06I9vwJV8V.zIdthEyg-] disk not present in database, Submit result: discs with pregaps not supported in this protocol version
==== Log checksum 4C597A0ECE6C8FFD24E0F67AE7CAD07466CDFFC81C686CCDAA14FCB55BE54491 ====

Содержание индексной карты (.CUE)

CD1

REM GENRE Opera
REM DATE 1992
REM DISCID AD103E0D
REM COMMENT "ExactAudioCopy v1.0b3"
CATALOG 0000000000000
PERFORMER "Wagner"
TITLE "Der Fliegende Holländer, Steinberg CD1"
FILE "Wagner - Der Fliegende Holländer, Steinberg CD1.ape" WAVE
TRACK 01 AUDIO
TITLE "Ouvertüre"
PERFORMER "Wagner"
INDEX 00 00:00:00
INDEX 01 00:00:32
TRACK 02 AUDIO
TITLE "-- 1. Akt - Introduktion - Matrosen, Daland, Steuermann"
PERFORMER "Wagner"
INDEX 01 11:31:37
TRACK 03 AUDIO
TITLE "Mit Gewitter und Sturm aus fernem Meer- Steuermann"
PERFORMER "Wagner"
INDEX 01 16:04:20
TRACK 04 AUDIO
TITLE "2. Szene - Die Frist ist um - Holländer"
PERFORMER "Wagner"
INDEX 01 21:58:32
TRACK 05 AUDIO
TITLE "Dich frage ich, gepriesner Engel Gottes - Holländer"
PERFORMER "Wagner"
INDEX 01 27:41:05
TRACK 06 AUDIO
TITLE "3. Szene - He, holla, Steuermann - Daland, Steuermann, Holländer"
PERFORMER "Wagner"
INDEX 01 33:27:20
TRACK 07 AUDIO
TITLE "Durch Sturm und bösen Wind verschlagen - Holländer, Daland"
PERFORMER "Wagner"
INDEX 01 37:38:50
TRACK 08 AUDIO
TITLE "Wie, hör ich recht?, meine Tochter sein Weib - Daland, Holländer"
PERFORMER "Wagner"
INDEX 01 42:26:57
TRACK 09 AUDIO
TITLE "Wenn aus der Qualen Schreckgewalten - Holländer, Daland"
PERFORMER "Wagner"
INDEX 01 47:29:57
TRACK 10 AUDIO
TITLE "Südwind! Südwind! - Steuermann, Matrosen, Daland, Holländer"
PERFORMER "Wagner"
INDEX 01 50:07:45
TRACK 11 AUDIO
TITLE "Mit Gewitter und Sturm aus fernem Meer - Matrosen"
PERFORMER "Wagner"
INDEX 01 51:53:07
TRACK 12 AUDIO
TITLE "-- 2. Akt - Summ und brumm, du .. - Mädchen, Mary, Senta"
PERFORMER "Wagner"
INDEX 01 54:29:02
TRACK 13 AUDIO
TITLE "Johohoe! Johohohoe! - Senta, Mädchen"
PERFORMER "Wagner"
INDEX 01 62:59:57

CD2

REM GENRE Opera
REM DATE 1992
REM DISCID C9101610
REM COMMENT "ExactAudioCopy v1.0b3"
PERFORMER "Wagner"
TITLE "Der Fliegende Holländer, Steinberg CD2"
FILE "Wagner - Der Fliegende Holländer, Steinberg CD2.ape" WAVE
TRACK 01 AUDIO
TITLE "Ach! Wo weilt sie"
PERFORMER "Mädchen, Senta, Mary"
INDEX 00 00:00:00
INDEX 01 00:00:33
TRACK 02 AUDIO
TITLE "Senta! Willst du mich verderben"
PERFORMER "Erik, Mädchen, Mary, Senta"
INDEX 01 01:23:58
TRACK 03 AUDIO
TITLE "5. Szene - Bleib, Senta! Bleib nur einen Augenblick!"
PERFORMER "Erik, Senta"
INDEX 01 03:33:55
TRACK 04 AUDIO
TITLE "Auf hohem Felsen lag ich träumend"
PERFORMER "Erik, Senta"
INDEX 01 12:15:20
TRACK 05 AUDIO
TITLE "6. Szene - Mein Kind, du siehst mich auf der Schwelle"
PERFORMER "Daland"
INDEX 01 16:34:70
TRACK 06 AUDIO
TITLE "Mögst du, mein Kind, den fremden Mann"
PERFORMER "Daland"
INDEX 01 18:22:40
TRACK 07 AUDIO
TITLE "Wie aus der ferne längst vergang'ner Zeiten"
PERFORMER "Holländer, Senta"
INDEX 01 24:50:53
TRACK 08 AUDIO
TITLE "Wirst du des Vaters Wahl nicht schelten"
PERFORMER "Holländer, Senta"
INDEX 01 30:41:35
TRACK 09 AUDIO
TITLE "Verzeiht! Mein Volk hält draussen sich .."
PERFORMER "Daland, Senta, Holländer"
INDEX 01 38:01:20
TRACK 10 AUDIO
TITLE "..3. Akt"
PERFORMER "Entr'acte"
INDEX 01 39:58:38
TRACK 11 AUDIO
TITLE "7. Szene - Steuermann, lass die Wacht!"
PERFORMER "Matrose, Mädchen, Steuermann"
INDEX 01 40:55:50
TRACK 12 AUDIO
TITLE "Johohoe!"
PERFORMER "Mannschaft d. Holländer, norw. Matrosen"
INDEX 01 50:48:43
TRACK 13 AUDIO
TITLE "8. Szene - Was musst ich hören Gott"
PERFORMER "Erik, Senta"
INDEX 01 54:19:20
TRACK 14 AUDIO
TITLE "Willst jenes Tags du nicht mehr dich entsinnen"
PERFORMER "Erik"
INDEX 01 56:48:20
TRACK 15 AUDIO
TITLE "Verloren! Ach, verloren!"
PERFORMER "Holländer, Erik, Senta"
INDEX 01 59:58:23
TRACK 16 AUDIO
TITLE "Erfahre das Geschick"
PERFORMER "Holländer, Erika, Senta, Daland, Mary, Chor"
INDEX 01 62:36:63
Доп. информация:
Synopsis
The mysterious Dutchman is condemned to sail the seas with his ghostly crew until redeemed by the pure love of a woman.
After a stormy overture Daland's ship puts in to land, and a stranger ship puts in alongside, hailed by Daland's steersman, but not answering his call or the invitations offered by the local people, who celebrate the return of their men-folk.
The Dutchman himself, captain of the ghostly ship, allowed now, after seven more years, to land in his quest for release, asks Daland for hospitality, offering him rich reward and showing an interest in Senta, his daughter.
In Daland’s house, where the women sit spinning, Senta has long been preoccupied by the story of the Dutchman and fascinated by his portrait.
Erik, a huntsman, loves her and tells her his dream, in which he saw Daland bringing home a stranger.
Senta, however, is still more preoccupied with her vision of the strange seafarer, whom her father now brings home.
Senta's love, it seems, will bring the Dutchman the redemption he seeks.
He overhears Erik, however, reproaching Senta for her infidelity and resolves to leave her.
As The Flying Dutchman sails out into the open sea, Senta, who has struggled free from Erik and those who seek to restrain her, leaps from the cliff in a pure act of love.
The Dutchman's ship and crew sink at once in the waves, and he and Senta are seen united for ever.
Wagner's opera makes use of several leading motifs, a principle of which he made much greater use in his later music-dramas.
Here the Dutchman himself is represented by the striking horn call heard first in the overture, with its stormy string-writing.
Part of the music of Senta's second act ballad is heard, her story of the Dutchman, a motif that represents her, and there are other elements that re-appear as the story unfolds.
The overture itself, in many ways a summary of the action, is an impressive concert piece.
Vocal excerpts include the Dutchman's Die Frist ist um (The time is here) and the Steersman's song Mit Gewitter und Sturm aus fernem Meer (In thunder and storm from the far sea).
The second act starts with the women spinning in Daland's house, singing their lilting spinning-song Summ und Brumm (Hum and sing), echoing the sound of their work.
Senta's moving ballad follows.
Choruses include the well known Steuermann, lass die Wacht (Steersman, leave the watch).



Показать сообщения:    

Текущее время: 09-Дек 18:26

Часовой пояс: UTC + 3


Вы не можете начинать темы
Вы не можете отвечать на сообщения
Вы не можете редактировать свои сообщения
Вы не можете удалять свои сообщения
Вы не можете голосовать в опросах
Вы не можете прикреплять файлы к сообщениям
Вы не можете скачивать файлы