[TR24][SM][OF] Edouard Lalo - Symphonie espagnole, Violin Concerto & Fantaisie norvegienne / Jean-Jacques Kantorow, Kees Bakels & Granada City Orchestra - 2009 (Classical)


Статистика раздачи [Обновить пиров]
Размер:  631 MB   |    Зарегистрирован:  8 месяцев 21 день   |    Скачан:  0 раз

Полного источника не было: Никогда

 
   
 
 
 

[Цитировать]

Édouard Lalo (1823–1892)
Формат записи/Источник записи: [TR24][SM][OF]
Наличие водяных знаков: Нет
Издание: BIS-1680
Год издания/переиздания диска: 2009
Жанр: Classical
Издатель(лейбл): BIS Records
Продолжительность: 69:39
Наличие сканов в содержимом раздачи: Да
Треклист:
Concerto for Violin and Orchestra, Op.20
01 I. Andante 13:13
02 II. Andantino 04:46
03 III. Allegro con fuoco 05:48
Fantaisie norvégienne
04 I. Allegro non troppo 04:53
05 II. Andante 04:03
06 III. Allegro 04:22
Symphonie espagnole, Op.21
07 I. Allegro non troppo 07:13
08 II. Scherzando. Allegro molto 03:57
09 III. Intermezzo. Allegretto non troppo 06:14
10 IV. Andante 05:56
11 V. Rondo. Allegro 07:46
Контейнер: FLAC (*.flac)
Тип рипа: tracks
Разрядность: 24/44,1
Формат: WAV (flac.ape.wv)
Количество каналов: 2.0
Источник (релизер): http://www.eclassical.com/lalo-edouard/lalo-symphonie-espagnole.html

Состав

Jean-Jacques Kantorow violin
Granada City Orchestra
Kees Bakels conductor

Dynamic Range Meter

foobar2000 1.2.6 / Dynamic Range Meter 1.1.1
log date: 2015-04-01 00:21:05
--------------------------------------------------------------------------------
Analyzed: Jean-Jacques Kantorow, Granada City Orchestra, Kees Bakels / Lalo: Works for Violin and Orchestra
--------------------------------------------------------------------------------
DR Peak RMS Duration Track
--------------------------------------------------------------------------------
DR17 0.00 dB -23.31 dB 13:21 01-Concerto for Violin and Orchestra, Op.20 - I. Andante
DR12 -11.95 dB -29.92 dB 4:48 02-Concerto for Violin and Orchestra, Op.20 - II. Andantino
DR17 0.00 dB -23.00 dB 6:02 03-Concerto for Violin and Orchestra, Op.20 - III. Allegro con fuoco
DR17 -4.15 dB -28.38 dB 4:55 04-Fantaisie norvégienne - I. Allegro non troppo
DR12 -10.47 dB -27.92 dB 4:04 05-Fantaisie norvégienne - II. Andante
DR17 -4.96 dB -26.37 dB 4:35 06-Fantaisie norvégienne - III. Allegro
DR15 0.00 dB -21.64 dB 7:17 07-Symphonie espagnole, Op.21 - I. Allegro non troppo
DR19 -2.09 dB -27.95 dB 4:01 08-Symphonie espagnole, Op.21 - II. Scherzando. Allegro molto
DR18 -0.83 dB -25.49 dB 6:19 09-Symphonie espagnole, Op.21 - III. Intermezzo. Allegretto non troppo
DR18 0.00 dB -24.69 dB 5:58 10-Symphonie espagnole, Op.21 - IV. Andante
DR17 -0.21 dB -25.17 dB 8:19 11-Symphonie espagnole, Op.21 - V. Rondo. Allegro
--------------------------------------------------------------------------------
Number of tracks: 11
Official DR value: DR16
Samplerate: 44100 Hz
Channels: 2
Bits per sample: 24
Bitrate: 1241 kbps
Codec: FLAC
================================================================================
[teatrix.ru].t20802.torrent 
Торрент: Зарегистрирован [ 2016-03-20 00:46 ] · AE866C46C25D6F6A707535C4540C8B31831E9428

Скачать .torrent

Скачать

14 KB

Статус: проверено
Скачан: 0 раз
Размер: 631 MB
terms.php



Быстрый ответ

Имя:

      
Для отправки сообщений необходимо включить JavaScript
Показать сообщения:    

Текущее время: 10-Дек 02:17

Часовой пояс: UTC + 3


Вы можете начинать темы
Вы можете отвечать на сообщения
Вы не можете редактировать свои сообщения
Вы не можете удалять свои сообщения
Вы не можете голосовать в опросах
Вы не можете прикреплять файлы к сообщениям
Вы можете скачивать файлы