Кумиры экрана. Георгий Жжёнов (Руслан Заварзин) [2000, Личности и кумиры, DVB]


Статистика раздачи [Обновить пиров]
Размер:  450 MB   |    Зарегистрирован:  8 месяцев 21 день   |    Скачан:  0 раз

Полного источника не было: Никогда

 
   
 
 
 

[Цитировать]

Кумиры экрана.Георгий Жжёнов
Дата/Год выпуска: 2000
Страна: Россия
Жанр: Личности и кумиры
Продолжительность: 00:26:19
Перевод: Не требуется
Cтудия / издатель: ВТВ-сервис
Режиссер: Руслан Заварзин
Телеканал: Ретро
Описание: Родился: 22 марта 1915, Петроград, Россия Выдающийся советский и российский актер театра и кино, сыгравший более 100 ролей в театре и более 60 ролей в кино. Всенародную известность и любовь ему принесли роли в картинах «Ошибка резидента» и «Судьба резидента», «Берегись автомобиля», «Горячий снег», «Экипаж». Народный артист СССР, лауреат Государственной премии РСФСР, кавалер ордена «За заслуги перед Отечеством» II степени.
Доп. информация: "Кумиры экрана" - авторская передача Народной артистки СССР Клары Лучко, выступающей в роли ведущей.
Сэмпл: https://www.sendspace.com/file/xs0y2k
качество: DVB
формат: MPG
Видео: MPEG2 720:576 4:3 2149 Кбит/сек 25,000 кадров/сек
Аудио: MPEG Audio 192 Кбит/сек 48,0 КГц 2 канала

MediaInfo

Общее
Полное имя : Кумиры экрана. Жжёнов.mpg
Формат : MPEG-PS
Размер файла : 450 Мбайт
Продолжительность : 26 м.
Режим общего битрейта : Переменный
Общий поток : 2388 Кбит/сек
Видео
Идентификатор : 224 (0xE0)
Формат : MPEG Video
Версия формата : Version 2
Профиль формата : Main@Main
Параметр BVOP формата : Да
Параметр матрицы формата : Выборочная
Параметр GOP формата : M=3, N=12
Продолжительность : 26 м.
Вид битрейта : Переменный
Битрейт : 2149 Кбит/сек
Максимальный битрейт : 10000 Кбит/сек
Ширина : 720 пикселей
Высота : 576 пикселей
Соотношение сторон : 4:3
Частота кадров : 25,000 кадров/сек
Стандарт вещания : PAL
Цветовое пространство : YUV
Субдискретизация насыщенности : 4:2:0
Битовая глубина : 8 бит
Тип развёртки : Чересстрочная
Порядок развёртки : Верхнее поле первое
Метод сжатия : С потерями
Бит/(Пиксели*Кадры) : 0.207
Временной код первого кадра : 00:00:00:00
Оригинал временного кода : Group of pictures header
Размер потока : 405 Мбайт (90%)
Аудио
Идентификатор : 192 (0xC0)
Формат : MPEG Audio
Версия формата : Version 1
Профиль формата : Layer 2
Продолжительность : 26 м.
Вид битрейта : Постоянный
Битрейт : 192 Кбит/сек
Каналы : 2 канала
Частота : 48,0 КГц
Метод сжатия : С потерями
Задержка видео : 11 мс.
Размер потока : 36,2 Мбайт (8%)

Скриншоты

Запись потока *.ts произведена тюнером цифрового телевидения. В связи с тем, что не все плееры воспроизводят поток *.ts (MPEG-TS) , в данном видеофайле мной был сделан ремукс потока *.ts (MPEG-TS) в *.mpg (MPEG-PS) программой VideoReDo.
[teatrix.ru].t20806.torrent 
Торрент: Зарегистрирован [ 2016-03-20 00:45 ] · C4F0F67F8668715EA8FD7626866959583424DEC7

Скачать .torrent

Скачать

18 KB

Статус: проверено
Скачан: 0 раз
Размер: 450 MB
terms.php



Быстрый ответ

Имя:

      
Для отправки сообщений необходимо включить JavaScript
Показать сообщения:    

Текущее время: 10-Дек 09:55

Часовой пояс: UTC + 3


Вы можете начинать темы
Вы можете отвечать на сообщения
Вы не можете редактировать свои сообщения
Вы не можете удалять свои сообщения
Вы не можете голосовать в опросах
Вы не можете прикреплять файлы к сообщениям
Вы можете скачивать файлы