(Classical) Дюссек – Сочинения для фортепиано в четыре руки / Dussek – Works for piano four hands (Adrienne Soos & Ivo Haag) - 2004, FLAC (image+.cue) lossless


 

[Цитировать]

Дюссек – Сочинения для фортепиано в четыре руки / Dussek – Works for piano four hands (Adrienne Soós & Ivo Haag)
Жанр: Classical
Страна-производитель диска: Австрия
Год издания диска: 2004
Издатель (лейбл): Hungaroton
Номер по каталогу: HCD 32276
Дата записи: 21 — 23 ноября 2003 г., Будапешт.
Аудиокодек: FLAC
Тип рипа: image+.cue
Битрейт аудио: lossless
Продолжительность: 01:16:38
Источник: odeonmusic
Наличие сканов в содержимом раздачи: да
Треклист:-Ян Ладислав Дюссек (1760 — 1812).-Большая соната для фортепиано в четыре руки C-dur, op. 48, C. 186 (ок. 1801).
01. I. Allegro [08:23].
02. II. Larghetto affet[t]uoso e non troppo lento [06:03].
03. III. Intermezzo. Allegretto moderato ma energico. — Rondo. Allegretto moderato [06:06].
Концертный дуэт для арфы и фортепиано (двух фортепиано) B-dur, op. 69 № 1 / op. 74, C. 234 (1810).
04. I. Allegro con fuoco [08:28].
05. II. Траурный марш. Andante moderato [05:50].
06. III. Menuetto. Tempo di ballo quasi andante [05:12].
Три фуги для фортепиано в четыре руки, op. 64 (1808).
07. № 1 D-dur, C. 227. Tempo molto moderato [06:01].
08. № 2 g-moll, C. 228. Andante moderato [06:44].
09. № 3 F-dur, C. 229. Tempo ad libitum ma non presto [05:28].
Большая увертюра (Соната) для фортепиано в четыре руки C-dur, op. 32, C. 144 (1796).
10. I. Largo. — Allegro moderato [10:16].
11. II. Larghetto non tanto [03:14].
12. III. Rondo. Allegretto [04:31].-Исполнители:
Adrienne Soós и Ivo Haag (фортепиано в четыре руки).-

Лог создания рипа

Exact Audio Copy V1.0 beta 4 from 7. December 2014
EAC extraction logfile from 21. March 2015, 23:22
Adrienne Soos, Ivo Haag / Dussek - Works for Piano Four Hands - Adrienne Soos, Ivo Haag
Used drive : PLDS DVD-RW DA8A5SH Adapter: 1 ID: 0
Read mode : Secure
Utilize accurate stream : Yes
Defeat audio cache : Yes
Make use of C2 pointers : No
Read offset correction : 6
Overread into Lead-In and Lead-Out : No
Fill up missing offset samples with silence : Yes
Delete leading and trailing silent blocks : No
Null samples used in CRC calculations : Yes
Used interface : Native Win32 interface for Win NT & 2000
Used output format : User Defined Encoder
Selected bitrate : 1024 kBit/s
Quality : High
Add ID3 tag : No
Command line compressor : J:\EAC\Exact Audio Copy\Flac\flac.exe
Additional command line options : -8 -V -T "ARTIST=%artist%" -T "TITLE=%title%" -T "ALBUM=%albumtitle%" -T "DATE=%year%" -T "TRACKNUMBER=%tracknr%" -T "GENRE=%genre%" -T "PERFORMER=%albuminterpret%" -T "COMPOSER=%composer%" %haslyrics%--tag-from-file=LYRICS="%lyricsfile%"%haslyrics% -T "ALBUMARTIST=%albumartist%" -T "DISCNUMBER=%cdnumber%" -T "TOTALDISCS=%totalcds%" -T "TOTALTRACKS=%numtracks%" -T "COMMENT=%comment%" %source% -o %dest%
TOC of the extracted CD
Track | Start | Length | Start sector | End sector
---------------------------------------------------------
1 | 0:00.00 | 8:23.45 | 0 | 37769
2 | 8:23.45 | 6:03.50 | 37770 | 65044
3 | 14:27.20 | 6:12.55 | 65045 | 92999
4 | 20:40.00 | 8:28.00 | 93000 | 131099
5 | 29:08.00 | 5:50.20 | 131100 | 157369
6 | 34:58.20 | 5:18.55 | 157370 | 181274
7 | 40:17.00 | 6:01.10 | 181275 | 208359
8 | 46:18.10 | 6:44.10 | 208360 | 238669
9 | 53:02.20 | 5:34.55 | 238670 | 263774
10 | 58:37.00 | 10:16.35 | 263775 | 310009
11 | 68:53.35 | 3:14.15 | 310010 | 324574
12 | 72:07.50 | 4:31.10 | 324575 | 344909
Range status and errors
Selected range
Filename K:\Ripped\[7535] Dussek – Works for Piano Four Hands – Adrienne Soos, Ivo Haag\Dussek - Works for Piano Four Hands - Adrienne Soos, Ivo Haag.wav
Peak level 100.0 %
Extraction speed 3.4 X
Range quality 100.0 %
Test CRC 6D1A9E67
Copy CRC 6D1A9E67
Copy OK
No errors occurred
AccurateRip summary
Track 1 not present in database
Track 2 not present in database
Track 3 not present in database
Track 4 not present in database
Track 5 not present in database
Track 6 not present in database
Track 7 not present in database
Track 8 not present in database
Track 9 not present in database
Track 10 not present in database
Track 11 not present in database
Track 12 not present in database
None of the tracks are present in the AccurateRip database
End of status report
==== Log checksum 5FA9D8D4E8E0896C8A73FAC83C591AEFD9D2812AC78CAC8D8FA7E48E75C99011 ====

Содержание индексной карты (.CUE)

REM DISCID 9E11F60C
REM COMMENT "ExactAudioCopy v1.0b4"
PERFORMER "Adrienne Soos, Ivo Haag"
TITLE "Dussek – Works for piano four hands – Adrienne Soos & Ivo Haag"
FILE "Dussek – Works for piano four hands – Adrienne Soos & Ivo Haag.flac" WAVE
TRACK 01 AUDIO
TITLE "Sonata in C major, Op. 48 (C. 186) - I. Allegro"
PERFORMER "Adrienne Soos, Ivo Haag"
INDEX 01 00:00:00
TRACK 02 AUDIO
TITLE "Sonata in C major, Op. 48 (C. 186) - II. Larghetto affetuoso e non troppo Lento"
PERFORMER "Adrienne Soos, Ivo Haag"
INDEX 01 08:23:45
TRACK 03 AUDIO
TITLE "Sonata in C major, Op. 48 (C. 186) - III. Intermezzo. Allegretto moderato ma energico - Rondo. Allegro moderato"
PERFORMER "Adrienne Soos, Ivo Haag"
INDEX 01 14:27:20
TRACK 04 AUDIO
TITLE "Grande Sonate in B flat major, Op. 74 (C. 234) - I. Allegro con fuoco"
PERFORMER "Adrienne Soos, Ivo Haag"
INDEX 00 20:34:00
INDEX 01 20:40:00
TRACK 05 AUDIO
TITLE "Grande Sonate in B flat major, Op. 74 (C. 234) - II. Marche funebre. Andante moderato"
PERFORMER "Adrienne Soos, Ivo Haag"
INDEX 01 29:08:00
TRACK 06 AUDIO
TITLE "Grande Sonate in B flat major, Op. 74 (C. 234) - III. Menuetto. Tempo di ballo - quasi andante"
PERFORMER "Adrienne Soos, Ivo Haag"
INDEX 01 34:58:20
TRACK 07 AUDIO
TITLE "Three Fugues, Op. 64 - Fuga I (C. 227). Tempo molto moderato"
PERFORMER "Adrienne Soos, Ivo Haag"
INDEX 00 40:11:00
INDEX 01 40:17:00
TRACK 08 AUDIO
TITLE "Three Fugues, Op. 64 - Fuga II (C. 228). Andante moderato"
PERFORMER "Adrienne Soos, Ivo Haag"
INDEX 01 46:18:10
TRACK 09 AUDIO
TITLE "Three Fugues, Op. 64 - Fuga III (C. 229). Tempo ad libitum ma non presto"
PERFORMER "Adrienne Soos, Ivo Haag"
INDEX 01 53:02:20
TRACK 10 AUDIO
TITLE "Sonata in C major, Op. 32 (C. 144) - I. Largo - Allegro moderato"
PERFORMER "Adrienne Soos, Ivo Haag"
INDEX 00 58:31:00
INDEX 01 58:37:00
TRACK 11 AUDIO
TITLE "Sonata in C major, Op. 32 (C. 144) - II. Larghetto non tanto"
PERFORMER "Adrienne Soos, Ivo Haag"
INDEX 01 68:53:35
TRACK 12 AUDIO
TITLE "Sonata in C major, Op. 32 (C. 144) - III. Rondo. Allegretto"
PERFORMER "Adrienne Soos, Ivo Haag"
INDEX 01 72:07:50

Вариант индексной карты (.CUE) с выставленными зазорами

REM DISCID 9E11F60C
REM COMMENT "ExactAudioCopy v1.0b4"
PERFORMER "Adrienne Soos, Ivo Haag"
TITLE "Dussek – Works for piano four hands – Adrienne Soos & Ivo Haag"
FILE "Dussek – Works for piano four hands – Adrienne Soos & Ivo Haag.flac" WAVE
TRACK 01 AUDIO
TITLE "Sonata in C major, Op. 48 (C. 186) - I. Allegro"
PERFORMER "Adrienne Soos, Ivo Haag"
INDEX 00 00:00:00
INDEX 01 00:00:53
TRACK 02 AUDIO
TITLE "Sonata in C major, Op. 48 (C. 186) - II. Larghetto affetuoso e non troppo Lento"
PERFORMER "Adrienne Soos, Ivo Haag"
INDEX 00 08:22:68
INDEX 01 08:24:11
TRACK 03 AUDIO
TITLE "Sonata in C major, Op. 48 (C. 186) - III. Intermezzo. Allegretto moderato ma energico - Rondo. Allegro moderato"
PERFORMER "Adrienne Soos, Ivo Haag"
INDEX 00 14:26:54
INDEX 01 14:28:03
TRACK 04 AUDIO
TITLE "Grande Sonate in B flat major, Op. 74 (C. 234) - I. Allegro con fuoco"
PERFORMER "Adrienne Soos, Ivo Haag"
INDEX 00 20:33:26
INDEX 01 20:40:72
TRACK 05 AUDIO
TITLE "Grande Sonate in B flat major, Op. 74 (C. 234) - II. Marche funebre. Andante moderato"
PERFORMER "Adrienne Soos, Ivo Haag"
INDEX 00 29:07:68
INDEX 01 29:08:54
TRACK 06 AUDIO
TITLE "Grande Sonate in B flat major, Op. 74 (C. 234) - III. Menuetto. Tempo di ballo - quasi andante"
PERFORMER "Adrienne Soos, Ivo Haag"
INDEX 01 34:58:71
TRACK 07 AUDIO
TITLE "Three Fugues, Op. 64 - Fuga I (C. 227). Tempo molto moderato"
PERFORMER "Adrienne Soos, Ivo Haag"
INDEX 00 40:10:31
INDEX 01 40:18:00
TRACK 08 AUDIO
TITLE "Three Fugues, Op. 64 - Fuga II (C. 228). Andante moderato"
PERFORMER "Adrienne Soos, Ivo Haag"
INDEX 00 46:17:47
INDEX 01 46:18:47
TRACK 09 AUDIO
TITLE "Three Fugues, Op. 64 - Fuga III (C. 229). Tempo ad libitum ma non presto"
PERFORMER "Adrienne Soos, Ivo Haag"
INDEX 00 53:02:15
INDEX 01 53:03:05
TRACK 10 AUDIO
TITLE "Sonata in C major, Op. 32 (C. 144) - I. Largo - Allegro moderato"
PERFORMER "Adrienne Soos, Ivo Haag"
INDEX 00 58:29:62
INDEX 01 58:37:56
TRACK 11 AUDIO
TITLE "Sonata in C major, Op. 32 (C. 144) - II. Larghetto non tanto"
PERFORMER "Adrienne Soos, Ivo Haag"
INDEX 00 68:52:60
INDEX 01 68:54:02
TRACK 12 AUDIO
TITLE "Sonata in C major, Op. 32 (C. 144) - III. Rondo. Allegretto"
PERFORMER "Adrienne Soos, Ivo Haag"
INDEX 00 72:07:48
INDEX 01 72:08:30
INDEX 02 76:37:10
-Концертный дуэт Craw 234 не обозначен в каталоге в версии для фортепиано в четыре руки. Возможно, это именно переложение для двух фортепиано (английское piano duet, которым обозначен ансамбль, — и то, и другое; правда, на обложке написано four hands, но чего только ни бывает на обложках). С другой стороны, Концертный дуэт Craw 239, вошедший в тот же op. 69 как № 2, был изначально сонатой для фортепиано в четыре руки. Это создает прецедент.



Показать сообщения:    

Текущее время: 02-Дек 23:11

Часовой пояс: UTC + 3


Вы не можете начинать темы
Вы не можете отвечать на сообщения
Вы не можете редактировать свои сообщения
Вы не можете удалять свои сообщения
Вы не можете голосовать в опросах
Вы не можете прикреплять файлы к сообщениям
Вы не можете скачивать файлы