(Classical, period) Шопен – Камерная музыка / Chopin – Chamber music: Cello sonata, Piano trio, Grand duo concertant, Introduction & polonaise brillante (Jakub Jakowicz, Andrzej Bauer, Jan Krzysztof Broja) - 2010, FLAC (image+.cue) lossless


 

[Цитировать]

Шопен – Камерная музыка / Chopin – Chamber music: Cello sonata, Piano trio, Grand duo concertant, Introduction & polonaise brillante (Jakub Jakowicz, Andrzej Bauer, Jan Krzysztof Broja)
Жанр: Classical, period
Страна-производитель диска: Польша?
Год издания диска: 2010
Издатель (лейбл): NIFC (Narodowy Instytut Fryderyka Chopina)
Номер по каталогу: NIFCCD 013
Дата записи: 6 — 8 июля, 13 — 14 сентября, 22 — 23 октября 2009 г., Варшава.
Аудиокодек: FLAC
Тип рипа: image+.cue
Битрейт аудио: lossless
Продолжительность: 01:18:45
Источник: odeonmusic
Наличие сканов в содержимом раздачи: да
Треклист:-Фредерик Франсуа Шопен (1810 — 1849).-Соната для фортепиано и виолончели g-moll, op. 65 (1845 — 1847).
01. I. Allegro moderato [12:15].
02. II. Scherzo [05:05].
03. III. Largo [04:03].
04. IV. Finale. Allegro [07:06].
Интродукция и блестящий полонез C-dur для фортепиано и виолончели, op. 3 (1829 — 1830).
05. Lento. — Alla polacca [09:32].
Большой концертный дуэт E-dur на темы из «Роберта-Дьявола» Мейербера для фортепиано и виолончели, B. 70 (1832; написан совместно с О.-Ж. Франкоммом).
06. Вступление. Largo. — Andantino. — Allegretto. — Andante cantabile. — [Кода.] Tempo I [13:50].
Фортепианное трио g-moll, op. 8 (1828 — 1829).
07. I. Allegro con fuoco [08:30].
08. II. Scherzo. Con moto ma non troppo. — Trio. — Scherzo da capo [06:12].
09. III. Adagio sostenuto [06:01].
10. IV. Finale. Allegretto [05:55].-Исполнители:
Jakub Jakowicz (скрипка),
Andrzej Bauer (виолончель),
Jan Krzysztof Broja (fortepiano, Érard, 1849).-

Лог создания рипа

Exact Audio Copy V1.0 beta 4 from 7. December 2014
EAC extraction logfile from 14. March 2015, 14:17
Various Artists / Chopin - Chamber Music - Various Artists
Used drive : PLDS DVD-RW DA8A5SH Adapter: 1 ID: 0
Read mode : Secure
Utilize accurate stream : Yes
Defeat audio cache : Yes
Make use of C2 pointers : No
Read offset correction : 6
Overread into Lead-In and Lead-Out : No
Fill up missing offset samples with silence : Yes
Delete leading and trailing silent blocks : No
Null samples used in CRC calculations : Yes
Used interface : Native Win32 interface for Win NT & 2000
Used output format : User Defined Encoder
Selected bitrate : 1024 kBit/s
Quality : High
Add ID3 tag : No
Command line compressor : J:\EAC\Exact Audio Copy\Flac\flac.exe
Additional command line options : -8 -V -T "ARTIST=%artist%" -T "TITLE=%title%" -T "ALBUM=%albumtitle%" -T "DATE=%year%" -T "TRACKNUMBER=%tracknr%" -T "GENRE=%genre%" -T "PERFORMER=%albuminterpret%" -T "COMPOSER=%composer%" %haslyrics%--tag-from-file=LYRICS="%lyricsfile%"%haslyrics% -T "ALBUMARTIST=%albumartist%" -T "DISCNUMBER=%cdnumber%" -T "TOTALDISCS=%totalcds%" -T "TOTALTRACKS=%numtracks%" -T "COMMENT=%comment%" %source% -o %dest%
TOC of the extracted CD
Track | Start | Length | Start sector | End sector
---------------------------------------------------------
1 | 0:00.00 | 12:15.71 | 0 | 55195
2 | 12:15.71 | 5:05.63 | 55196 | 78133
3 | 17:21.59 | 4:03.57 | 78134 | 96415
4 | 21:25.41 | 7:07.61 | 96416 | 128501
5 | 28:33.27 | 9:34.51 | 128502 | 171602
6 | 38:08.03 | 13:53.41 | 171603 | 234118
7 | 52:01.44 | 8:32.16 | 234119 | 272534
8 | 60:33.60 | 6:12.25 | 272535 | 300459
9 | 66:46.10 | 6:02.42 | 300460 | 327651
10 | 72:48.52 | 5:55.13 | 327652 | 354289
Range status and errors
Selected range
Filename K:\Ripped\[7544] Chopin – Chamber Music – Various Artists\Chopin - Chamber Music - Various Artists.wav
Peak level 86.8 %
Extraction speed 2.1 X
Range quality 99.9 %
Test CRC 2B9269F9
Copy CRC 2B9269F9
Copy OK
No errors occurred
AccurateRip summary
Track 1 accurately ripped (confidence 8) [0A6A3EDE] (AR v2)
Track 2 accurately ripped (confidence 8) [7B03DD77] (AR v2)
Track 3 accurately ripped (confidence 8) [F49FB2B8] (AR v2)
Track 4 accurately ripped (confidence 8) [1580C15D] (AR v2)
Track 5 accurately ripped (confidence 8) [9E551624] (AR v2)
Track 6 accurately ripped (confidence 8) [4971240A] (AR v2)
Track 7 accurately ripped (confidence 8) [94A6E9C0] (AR v2)
Track 8 accurately ripped (confidence 8) [888759ED] (AR v2)
Track 9 accurately ripped (confidence 8) [9703EE29] (AR v2)
Track 10 accurately ripped (confidence 8) [E92E97FA] (AR v2)
All tracks accurately ripped
End of status report
==== Log checksum 8898413BC70FC2160C2D583D4A0064FBFD4F4F0E7E18E593D495E659D2934209 ====

Содержание индексной карты (.CUE)

REM GENRE Classical
REM DATE 2010
REM DISCID 7C12730A
REM COMMENT "ExactAudioCopy v1.0b4"
PERFORMER "Various Artists"
TITLE "Chopin – Chamber music – Broja, Bauer & Jakowicz"
FILE "Chopin – Chamber music – Broja, Bauer & Jakowicz.flac" WAVE
TRACK 01 AUDIO
TITLE "Cello sonata in G minor, Op. 65 - I. Allegro moderato"
PERFORMER "Various Artists"
ISRC PLC700901301
INDEX 01 00:00:00
TRACK 02 AUDIO
TITLE "Cello sonata in G minor, Op. 65 - II. Scherzo. Allegro con brio"
PERFORMER "Various Artists"
ISRC PLC700901302
INDEX 01 12:15:71
TRACK 03 AUDIO
TITLE "Cello sonata in G minor, Op. 65 - III. Largo"
PERFORMER "Various Artists"
ISRC PLC700901303
INDEX 01 17:21:59
TRACK 04 AUDIO
TITLE "Cello sonata in G minor, Op. 65 - IV. Finale. Allegro"
PERFORMER "Various Artists"
ISRC PLC700901304
INDEX 01 21:25:41
TRACK 05 AUDIO
TITLE "Introduction and Polonaise brillante in C major for piano & cello, Op. 3"
PERFORMER "Various Artists"
ISRC PLC700901305
INDEX 00 28:32:10
INDEX 01 28:33:27
TRACK 06 AUDIO
TITLE "Grand Duo Concertant in E major (coll. with A. Franchomme), B. 70"
PERFORMER "Various Artists"
ISRC PLC700901306
INDEX 00 38:06:17
INDEX 01 38:08:03
TRACK 07 AUDIO
TITLE "Piano trio in G minor, Op. 8 - I. Allegro con fuoco"
PERFORMER "Various Artists"
ISRC PLC700901307
INDEX 00 51:58:61
INDEX 01 52:01:44
TRACK 08 AUDIO
TITLE "Piano trio in G minor, Op. 8 - II. Scherzo. Con moto ma non troppo"
PERFORMER "Various Artists"
ISRC PLC700901308
INDEX 00 60:32:20
INDEX 01 60:33:60
TRACK 09 AUDIO
TITLE "Piano trio in G minor, Op. 8 - III. Adagio sostenuto"
PERFORMER "Various Artists"
ISRC PLC700901309
INDEX 01 66:46:10
TRACK 10 AUDIO
TITLE "Piano trio in G minor, Op. 8 - IV. Finale. Allegretto"
PERFORMER "Various Artists"
ISRC PLC700901310
INDEX 00 72:47:33
INDEX 01 72:48:52

Вариант индексной карты (.CUE) с исправленными зазорами

REM GENRE Classical
REM DATE 2010
REM DISCID 7C12730A
REM COMMENT "ExactAudioCopy v1.0b4"
PERFORMER "Various Artists"
TITLE "Chopin – Chamber music – Broja, Bauer & Jakowicz"
FILE "Chopin – Chamber music – Broja, Bauer & Jakowicz.flac" WAVE
TRACK 01 AUDIO
TITLE "Cello sonata in G minor, Op. 65 - I. Allegro moderato"
PERFORMER "Various Artists"
ISRC PLC700901301
INDEX 00 00:00:00
INDEX 01 00:02:05
TRACK 02 AUDIO
TITLE "Cello sonata in G minor, Op. 65 - II. Scherzo. Allegro con brio"
PERFORMER "Various Artists"
ISRC PLC700901302
INDEX 01 12:16:49
TRACK 03 AUDIO
TITLE "Cello sonata in G minor, Op. 65 - III. Largo"
PERFORMER "Various Artists"
ISRC PLC700901303
INDEX 01 17:22:70
TRACK 04 AUDIO
TITLE "Cello sonata in G minor, Op. 65 - IV. Finale. Allegro"
PERFORMER "Various Artists"
ISRC PLC700901304
INDEX 01 21:26:19
TRACK 05 AUDIO
TITLE "Introduction and Polonaise brillante in C major for piano & cello, Op. 3"
PERFORMER "Various Artists"
ISRC PLC700901305
INDEX 00 28:30:70
INDEX 01 28:33:67
TRACK 06 AUDIO
TITLE "Grand Duo Concertant in E major (coll. with A. Franchomme), B. 70"
PERFORMER "Various Artists"
ISRC PLC700901306
INDEX 00 38:05:18
INDEX 01 38:09:14
TRACK 07 AUDIO
TITLE "Piano trio in G minor, Op. 8 - I. Allegro con fuoco"
PERFORMER "Various Artists"
ISRC PLC700901307
INDEX 00 51:58:05
INDEX 01 52:03:21
TRACK 08 AUDIO
TITLE "Piano trio in G minor, Op. 8 - II. Scherzo. Con moto ma non troppo"
PERFORMER "Various Artists"
ISRC PLC700901308
INDEX 00 60:33:70
INDEX 01 60:34:45
TRACK 09 AUDIO
TITLE "Piano trio in G minor, Op. 8 - III. Adagio sostenuto"
PERFORMER "Various Artists"
ISRC PLC700901309
INDEX 01 66:46:71
TRACK 10 AUDIO
TITLE "Piano trio in G minor, Op. 8 - IV. Finale. Allegretto"
PERFORMER "Various Artists"
ISRC PLC700901310
INDEX 00 72:47:74
INDEX 01 72:49:60



Показать сообщения:    

Текущее время: 06-Дек 11:13

Часовой пояс: UTC + 3


Вы не можете начинать темы
Вы не можете отвечать на сообщения
Вы не можете редактировать свои сообщения
Вы не можете удалять свои сообщения
Вы не можете голосовать в опросах
Вы не можете прикреплять файлы к сообщениям
Вы не можете скачивать файлы