(Neo-Classical, Avantgarde, Percussive music) Вячеслав Артёмов - Заклинания - 1991 (Ансамбль ударных инструментов Марка Пекарского), FLAC (tracks+.cue) lossless


 

[Цитировать]

Вячеслав Артёмов - Заклинания
Жанр: Neo-Classical, Avantgarde, Percussive music
Страна-производитель диска: СССР
Год издания диска: 1991
Издатель (лейбл): Мелодия
Номер по каталогу: SUCD 10-00243
Дата записи: 1981-1990
Аудиокодек: FLAC
Тип рипа: tracks+.cue
Битрейт аудио: lossless
Продолжительность: 1:09:17
Источник: собственный рип
Наличие сканов в содержимом раздачи: да
Треклист:
1. Totem (соната для шести исполнителей) [11:55]
2. Соната размышлений (для ансамбля ударных инструментов) [28:05]
3. Заклинания [19:30]
4. Ave atque vale [9:47]

Исполнители

1. Totem (соната для шести исполнителей) [11:55]
2. Соната размышлений (для ансамбля ударных инструментов) [28:05]
- Утреннее размышление [8:00]
- Послеполуденное размышление [5:15]
- Вечернее размышление [9:50]
- Полночное размышление [5:00]
3. Заклинания [19:30]
- Заклинание судьбы-змеи [3:18]
- Заклинание звезд-птиц [4:20]
- Заклинание душ-ветра [4:55]
- Заклинание звуков-огня [6:57]
4. Ave atque vale [9:47]
Лидия Давыдова, сопрано (Заклинание)
Марк Пекарский, ударные инструменты (Ave atque vale)
Ансамбль ударных инструментов под управлением Марка Пекарского
Записи: 1981 (Totem), 1989 (Соната размышлений, Заклинания), 1990 (Ave atque vale).
3вукорежиссеры:
С. Пазухин (Totem, Соната размышлений),
В. Иванов (Заклинания),
И. Beпринцев (Ave atque vale)
Редактор О. Хрусталев
Оформление художника Л. Володина
Фото В. Вяткина и В. Артёмова

Лог создания рипа

Exact Audio Copy V1.0 beta 3 from 29. August 2011
EAC extraction logfile from 31. March 2015, 12:47
Artyomov / Invocations
Used drive : PIONEER BD-RW BDR-208M Adapter: 0 ID: 1
Read mode : Secure
Utilize accurate stream : Yes
Defeat audio cache : Yes
Make use of C2 pointers : No
Read offset correction : 667
Overread into Lead-In and Lead-Out : No
Fill up missing offset samples with silence : Yes
Delete leading and trailing silent blocks : No
Null samples used in CRC calculations : Yes
Used interface : Native Win32 interface for Win NT & 2000
Gap handling : Appended to previous track
Used output format : Internal WAV Routines
Sample format : 44.100 Hz; 16 Bit; Stereo
TOC of the extracted CD
Track | Start | Length | Start sector | End sector
---------------------------------------------------------
1 | 0:00.00 | 11:54.70 | 0 | 53619
2 | 11:54.70 | 7:59.45 | 53620 | 89589
3 | 19:54.40 | 5:14.63 | 89590 | 113202
4 | 25:09.28 | 9:50.22 | 113203 | 157474
5 | 34:59.50 | 5:00.25 | 157475 | 179999
6 | 40:00.00 | 3:18.08 | 180000 | 194857
7 | 43:18.08 | 4:20.37 | 194858 | 214394
8 | 47:38.45 | 4:54.50 | 214395 | 236494
9 | 52:33.20 | 6:56.43 | 236495 | 267737
10 | 59:29.63 | 9:46.70 | 267738 | 311757
Track 1
Filename C:\Sounds\Artyomov - Invocations (1991)[FLAC]\01 - Totem for 6 performers.wav
Pre-gap length 0:00:02.00
Peak level 74.9 %
Extraction speed 5.8 X
Track quality 100.0 %
Test CRC 46CBEF3D
Copy CRC 46CBEF3D
Accurately ripped (confidence 1) [639E7DC9] (AR v2)
Copy OK
Track 2
Filename C:\Sounds\Artyomov - Invocations (1991)[FLAC]\02 - Sonata of Meditations - Morning meditation.wav
Pre-gap length 0:00:02.82
Peak level 61.6 %
Extraction speed 6.6 X
Track quality 100.0 %
Test CRC 09B31875
Copy CRC 09B31875
Accurately ripped (confidence 2) [E47D4B71] (AR v2)
Copy OK
Track 3
Filename C:\Sounds\Artyomov - Invocations (1991)[FLAC]\03 - Sonata of Meditations - Afternoon Meditation.wav
Pre-gap length 0:00:00.93
Peak level 92.2 %
Extraction speed 6.9 X
Track quality 100.0 %
Test CRC E8A30023
Copy CRC E8A30023
Accurately ripped (confidence 2) [1B7640B1] (AR v2)
Copy OK
Track 4
Filename C:\Sounds\Artyomov - Invocations (1991)[FLAC]\04 - Sonata of Meditations - Evening Meditation.wav
Pre-gap length 0:00:00.86
Peak level 79.7 %
Extraction speed 7.4 X
Track quality 99.9 %
Test CRC 2EE6BE9E
Copy CRC 2EE6BE9E
Accurately ripped (confidence 2) [6A9C72BB] (AR v2)
Copy OK
Track 5
Filename C:\Sounds\Artyomov - Invocations (1991)[FLAC]\05 - Sonata of Meditations - Midnight Meditation.wav
Pre-gap length 0:00:01.06
Peak level 87.4 %
Extraction speed 7.8 X
Track quality 100.0 %
Test CRC FFAE547D
Copy CRC FFAE547D
Accurately ripped (confidence 2) [8CE2CF26] (AR v2)
Copy OK
Track 6
Filename C:\Sounds\Artyomov - Invocations (1991)[FLAC]\06 - Invocations - of Fate.wav
Pre-gap length 0:00:02.89
Peak level 51.5 %
Extraction speed 7.5 X
Track quality 100.0 %
Test CRC 60E2ADEA
Copy CRC 60E2ADEA
Accurately ripped (confidence 2) [CB70AE7B] (AR v2)
Copy OK
Track 7
Filename C:\Sounds\Artyomov - Invocations (1991)[FLAC]\07 - Invocations - of Stars.wav
Pre-gap length 0:00:00.04
Peak level 53.4 %
Extraction speed 8.0 X
Track quality 100.0 %
Test CRC 8FA0DEF2
Copy CRC 8FA0DEF2
Accurately ripped (confidence 2) [7BB025F3] (AR v2)
Copy OK
Track 8
Filename C:\Sounds\Artyomov - Invocations (1991)[FLAC]\08 - Invocations - of Souls.wav
Pre-gap length 0:00:00.49
Peak level 56.9 %
Extraction speed 8.4 X
Track quality 100.0 %
Test CRC CA310242
Copy CRC CA310242
Accurately ripped (confidence 2) [9650DCC9] (AR v2)
Copy OK
Track 9
Filename C:\Sounds\Artyomov - Invocations (1991)[FLAC]\09 - Invocations - of Sounds.wav
Pre-gap length 0:00:00.02
Peak level 84.2 %
Extraction speed 9.0 X
Track quality 100.0 %
Test CRC DA5F8A12
Copy CRC DA5F8A12
Accurately ripped (confidence 2) [1A56C0AD] (AR v2)
Copy OK
Track 10
Filename C:\Sounds\Artyomov - Invocations (1991)[FLAC]\10 - Ave atque vale.wav
Pre-gap length 0:00:01.64
Peak level 78.6 %
Extraction speed 9.7 X
Track quality 100.0 %
Test CRC AB59D2E0
Copy CRC AB59D2E0
Accurately ripped (confidence 2) [9C798F95] (AR v2)
Copy OK
All tracks accurately ripped
No errors occurred
End of status report
==== Log checksum 9F1E4435EEEEB4C65DD01E2466B566E0DB21401149B54588E69952C4364892BF ====

Содержание индексной карты (.CUE)

REM GENRE Avantgarde
REM DATE 1991
REM DISCID 6B103C0A
REM COMMENT "ExactAudioCopy v1.0b3"
CATALOG 0000000000000
PERFORMER "Artyomov"
TITLE "Invocations"
FILE "01 - Totem for 6 performers.wav" WAVE
TRACK 01 AUDIO
TITLE "Totem for 6 performers"
PERFORMER "Artyomov"
INDEX 01 00:00:00
TRACK 02 AUDIO
TITLE "Sonata of Meditations - Morning meditation"
PERFORMER "Artyomov"
INDEX 00 11:52:08
FILE "02 - Sonata of Meditations - Morning meditation.wav" WAVE
INDEX 01 00:00:00
TRACK 03 AUDIO
TITLE "Sonata of Meditations - Afternoon Meditation"
PERFORMER "Artyomov"
INDEX 00 07:58:50
FILE "03 - Sonata of Meditations - Afternoon Meditation.wav" WAVE
INDEX 01 00:00:00
TRACK 04 AUDIO
TITLE "Sonata of Meditations - Evening Meditation"
PERFORMER "Artyomov"
INDEX 00 05:13:73
FILE "04 - Sonata of Meditations - Evening Meditation.wav" WAVE
INDEX 01 00:00:00
TRACK 05 AUDIO
TITLE "Sonata of Meditations - Midnight Meditation"
PERFORMER "Artyomov"
INDEX 00 09:49:17
FILE "05 - Sonata of Meditations - Midnight Meditation.wav" WAVE
INDEX 01 00:00:00
TRACK 06 AUDIO
TITLE "Invocations - of Fate"
PERFORMER "Artyomov"
INDEX 00 04:57:33
FILE "06 - Invocations - of Fate.wav" WAVE
INDEX 01 00:00:00
TRACK 07 AUDIO
TITLE "Invocations - of Stars"
PERFORMER "Artyomov"
INDEX 00 03:18:05
FILE "07 - Invocations - of Stars.wav" WAVE
INDEX 01 00:00:00
TRACK 08 AUDIO
TITLE "Invocations - of Souls"
PERFORMER "Artyomov"
INDEX 00 04:20:00
FILE "08 - Invocations - of Souls.wav" WAVE
INDEX 01 00:00:00
TRACK 09 AUDIO
TITLE "Invocations - of Sounds"
PERFORMER "Artyomov"
INDEX 00 04:54:48
FILE "09 - Invocations - of Sounds.wav" WAVE
INDEX 01 00:00:00
TRACK 10 AUDIO
TITLE "Ave atque vale"
PERFORMER "Artyomov"
INDEX 00 06:54:70
FILE "10 - Ave atque vale.wav" WAVE
INDEX 01 00:00:00

Лог проверки качества

-----------------------
DON'T MODIFY THIS FILE
-----------------------
PERFORMER: auCDtect Task Manager, ver. 1.5.1RC6 build 1.5.1.7
Copyright (c) 2008-2010 y-soft. All rights reserved
http://y-soft.org
ANALYZER: auCDtect: CD records authenticity detector, version 0.8.2
Copyright (c) 2004 Oleg Berngardt. All rights reserved.
Copyright (c) 2004 Alexander Djourik. All rights reserved.
FILE: 10 - Ave atque vale.flac
Size: 29854622 Hash: 2384623BB1CC5FE10E536AE64F0251C6 Accuracy: -m0
Conclusion: CDDA 100%
Signature: C86D2654516F267FB9084D479F3C9B83B863DD80
FILE: 09 - Invocations - of Sounds.flac
Size: 37889611 Hash: 1B4A96FF0E9BA0BDD147BA70D61C100A Accuracy: -m0
Conclusion: CDDA 100%
Signature: FC7161128487E3DE370201978250E4AD9D86E3E4
FILE: 08 - Invocations - of Souls.flac
Size: 21427601 Hash: C0EEA6481DEBBFE1557EC50FDC08422E Accuracy: -m0
Conclusion: CDDA 100%
Signature: 24DE6E081C699C0216AB3501669C22CADCB948C0
FILE: 07 - Invocations - of Stars.flac
Size: 19910293 Hash: D4A3B88AEF2FBBEF41AD84DD1F8E17F4 Accuracy: -m0
Conclusion: CDDA 100%
Signature: 0000969CAB9A3640C255D6570A0F96B7F7EFA80B
FILE: 06 - Invocations - of Fate.flac
Size: 16592271 Hash: 90C46EB26AFA16FF115284E17481ED27 Accuracy: -m0
Conclusion: CDDA 100%
Signature: D95D86C36FC3C3F77580314F1B8A0627F9D8AD68
FILE: 05 - Sonata of Meditations - Midnight Meditation.flac
Size: 20318792 Hash: 6B5E41919D19D0C491B310DA6C8EE48C Accuracy: -m0
Conclusion: CDDA 100%
Signature: FE39CC574E2BD65D9309C138FFBA3B7DF028F5B4
FILE: 04 - Sonata of Meditations - Evening Meditation.flac
Size: 55233999 Hash: DEE56F86658AE013E3808F5A8E1CB3DE Accuracy: -m0
Conclusion: CDDA 99%
Signature: A9C2DA86AAE4605088204BF021F521363A0B2C7E
FILE: 03 - Sonata of Meditations - Afternoon Meditation.flac
Size: 20130736 Hash: 595E90308AACC3D6B4D8C6C0B29B4C0E Accuracy: -m0
Conclusion: CDDA 100%
Signature: 35BFD3EC3760B3BF3CEFE0E09352161F36CC8785
FILE: 02 - Sonata of Meditations - Morning meditation.flac
Size: 30726215 Hash: 6C9D5A3C85B69917E6B40687081DFC07 Accuracy: -m0
Conclusion: CDDA 100%
Signature: 48A0B0F062CBA038863DAF9EE2FF2C9B9C4BE681
FILE: 01 - Totem for 6 performers.flac
Size: 63306737 Hash: 720C2396DB3CBE4A2E0D35F569F80F82 Accuracy: -m0
Conclusion: CDDA 99%
Signature: AD7B72B610CEB67BF245FB68C597E2CF0E9024D6

DR value: DR16

foobar2000 1.3.5 / Dynamic Range Meter 1.1.1
log date: 2015-03-31 12:50:54
--------------------------------------------------------------------------------
Analyzed: Artyomov / Invocations
--------------------------------------------------------------------------------
DR Peak RMS Duration Track
--------------------------------------------------------------------------------
DR14 -2.51 dB -21.53 dB 11:55 01-Totem for 6 performers
DR15 -4.20 dB -29.58 dB 8:00 02-Sonata of Meditations - Morning meditation
DR17 -0.70 dB -22.29 dB 5:15 03-Sonata of Meditations - Afternoon Meditation
DR15 -1.97 dB -23.23 dB 9:50 04-Sonata of Meditations - Evening Meditation
DR17 -1.16 dB -25.75 dB 5:00 05-Sonata of Meditations - Midnight Meditation
DR14 -5.75 dB -27.25 dB 3:18 06-Invocations - of Fate
DR13 -5.45 dB -25.98 dB 4:20 07-Invocations - of Stars
DR15 -4.89 dB -29.37 dB 4:55 08-Invocations - of Souls
DR13 -1.48 dB -21.78 dB 6:57 09-Invocations - of Sounds
DR22 -2.08 dB -31.52 dB 9:47 10-Ave atque vale
--------------------------------------------------------------------------------
Number of tracks: 10
Official DR value: DR16
Samplerate: 44100 Hz
Channels: 2
Bits per sample: 16
Bitrate: 407 kbps
Codec: FLAC
================================================================================

Доп. информация

Более двадцати лет существует творческое содружество композитора Вячеслава Артёмова и Марка Пекарского - исполнителя на ударных инструментах, создателя и руководителя аналогичного Ансамбля.
"М.Пекарский принадлежит к числу тех исполнителей, которые помогают автору осознать свои задачи и точно их реализовать", - говорит Артёмов. Целый ряд сочинений композитора написан специально для Ансамбля Марка Пекарского, который считает, что "Артёмов не только мыслит "перкуссионно", но и открывает неисчерпаемые возможности инструментов, а норой и изобретает новые".
Мощным источником вдохновения для Артёмова служат неевропейские, в частности восточные, а также первобытные культуры. И ударным в осуществлении подобных замыслов принадлежит едва ли не первостепенная роль.
Заголовки составивших "Сонату размышлений" (1978) четырех разнохарактерных пьес ассоциируются с традиционной формой индийской музыки рагой, всегда приуроченной к определенному времени суток. Содержание Сонаты — некое медитативное действо, в развертывании которое складывается образ человека, выявление его очень простой и одновременно многомерной сущности.
Название сонаты для шести исполнителей "Totem" взято из языка северо-американских индейцев племени аджибве. Оно обозначает животное, растение. иногда явление природы или неодушевленный предмет, состоящий в фантастическом, сверхъестественном родстве с человеком. Как рассказывает автор, "сила и драматизм "Totem" в естественности движения образов от проникновения в реалии сущего мира к отстраненному созерцанию его абсолютного смысла. Трагическое ощущение времени, низводящего все живое в безжизненный символ, не оставляет пас на всем протяжении пьесы". Премьера сочинения состоялась в 1976 году на первом концерте Ансамбля Марка Пекарского.
В одном из самобытнейших своих сочинений — "Заклинаниях" (1979 — 1981) Артёмов прибегает к сочетанию ударных и человеческого голоса, воссоздавая поразительный по реальности и яркости звуковой образ первобытной магии. "Продолжая опыт Велемира Хлебникова, композитор сочинил и условно-фонетический текст заклинаний на вымышленном "колдовском" языке. — пишет Альфред Шнитке. — Удивительно, что этот текст кажется русским, хотя (за исключением одной фразы) русских слов не содержит это какой то прообраз русского языка, фонетическая "лава", точно выражающая чувство, но еще не застывшая в словах-определениях. Фонетическая яркость текста создает единство произведения с помощью тембровых связей между голосом и ударными".
"Ave atque vale" (1988) пьеса, написанная специально для концертной программы из произведений композиторов группы "Астрея", в которую входили С.Губайдулина, В.Артёмов и В.Суслин. Композитор замыслил "Ave alqne vale" (в переводе с латинского — "Здравствуй и прощай") как завершение определенного этапа творческого пути, как, говоря его словами, драму с оттенком ностальгии — в духе всей музыки "Астреи"...".
Т.Фрумкис



Показать сообщения:    

Текущее время: 07-Дек 19:29

Часовой пояс: UTC + 3


Вы не можете начинать темы
Вы не можете отвечать на сообщения
Вы не можете редактировать свои сообщения
Вы не можете удалять свои сообщения
Вы не можете голосовать в опросах
Вы не можете прикреплять файлы к сообщениям
Вы не можете скачивать файлы