(Opera) Richard Wagner - Parsifal (Greindl, Hotter, Windgassen, Mödl (Moedl, Modl), Adam, Neidlinger, cond. Knappertsbusch, Bayreuth 1954) 4 CDs - 2005, FLAC (tracks+.cue) lossless


 

[Цитировать]

Richard Wagner - Parsifal (Josef Greindl, Hans Hotter, Wolfgang Windgassen, Martha Mödl, Theo Adam, Gustav Neidlinger et al. Dirigent Hans Knappertsbusch. Bayreuth 1954) 4 CDs
Жанр: Opera
Страна-производитель диска: EU
Год издания диска: 2005
Издатель (лейбл): Archipel Desert Island Collection
Номер по каталогу: ARPCD 0283-4
Дата записи: 1954
Аудиокодек: FLAC
Тип рипа: tracks+.cue
Битрейт аудио: lossless
Продолжительность: 4:28:57 (1:10:00 + 46:00 + 1:16:26 + 1:16:30)
Источник: собственный рип
Наличие сканов в содержимом раздачи: да
Треклист:

Disk 1 – 1. Aufzug

1. Aufzug
[1] Vorspiel (Orchester) 13:29
[2] He! Ho! Waldhüter ihr (Gurnemanz) 4:35
[3] Toren wir, auf Lind'rung da zu hoffen (Gurnemanz) 1:55
[4] Hier! Nimm du! Balsam (Kundry) 2:25
[5] Recht so! Habt Dank! Ein wenig Rast (Amfortas) 3:54
[6] „Durch Mitleid wissend" - war's nicht so? (Amfortas) 4:02
[7] He! Du da! Was liegst du dort wie ein wildes Tier? (Dritter Knappe) 7:06
[8] Das ist ein and’res, jedem ist’s verwehrt (Gurnemanz) 5:00
[9] Titurel, der fomme Held, der kannt' ihn wohl (Gurnemanz) 9:11
[10] Vor allem nun, der Speer kehr' uns zurück! (Vierter Knappe) 2:56
[11] Weh'! Weh’! Hoho! Auf! Wer ist der Frevler? (Knappen & Ritter) 5:09
[12] Wirst deiner Sündentat du inne? (Gurnemanz) 3:10
[13] Ich hab' eine Mutter, Herzeleide sie heißt (Parsifal) 5:12
[14] Nie tu' ich Gutes, nur Ruhe will ich (Kundry) 1:49

Disk 2 – 1. Aufzug, cont.

1. Aufzug, cont.
[1] Vom Bade kehrt der König heim (Gurnemanz) 7:52
[2] Zum letzten Liebesmahle (Chorus) 6:22
[3] Mein Sohn Amfortas, bist du am Amt? (Titurel) 6:41
[4] Des Weihgefäßes göttlicher Gehalt (Amfortas) 5:44
[5] Enthüllet den Gral! (Titurel) 5:50
[6] Oh! Heilige Wonne (Titurel) 5:26
[7] Selig im Glauben! (Chorus) 5:25
[8] Was stehst du noch da? (Gurnemanz) 2:35

Disk 3 – 2. Aufzug, 3. Aufzug

2. Aufzug
[1] Vorspiel (Orchester) 2:09
[2] Die Zeit ist da (Klingsor) 4:04
[3] Ach! Ach! Tiefe Nacht! Wahnsinn! (Kundry) 3:31
[4] Furchtbare Not! (Klingsor) 5:16
[5] Seine Wunde trägt jeder nach heim! (Klingsor) 2:37
[6] Hier war das Tosen (Zaubermädchen) 1:56
[7] Ihr schönen Kinder, mußt‘ ich sie nicht schlagen? (Parsifal) 2:13
[8] Komm! Komm! Holder Knabe! (Zaubermädchen) 5:26
[9] Parsifal! Weile! (Kundry) 3:13
[10] Dies alles hab' ich nur geträumt? (Parsifal) 3:33
[11] Ich sah das Kind an seiner Mutter Brust (Kundry) 5:54
[12] Wehe! Wehe! Was tat ich? (Parsifal) 5:37
[13] Amfortas! Die Wunde! (Parsifal) 6:39
[14] Gelobter Held! (Kundry) 5:27
[15] Nun such' ich ihn von Welt zu Welt (Kundry) 3:24
[16] Auf Ewigkeit wärst du verdammt (Parsifal) 5:53
[17] Vergeh‘, unseliges Weib! (Parsifal) 1:40
[18] Halt dha! Dich bann‘ ich mit der rechten Wehr! (Klingsor) 2:36
3. Aufzug
|19] Vorspiel (Orchester) 5:11

Disk 4 – 3. Aufzug, cont.

3. Aufzug, cont.
[1] Von dorther kam das Stöhnen (Gurnemanz) 5:25
|2] Dienen! Dienen! (Kundry) 3:52
[3] Heil dir, mein Gast! (Gurnemanz) 7:29
[4] Der Irrnis und der Leiden Pfade (Parsifal) 3:16
[5] O Gnade! Höchstes Heil! (Gurnemanz) 6:53
[6] Und ich, ich bin’s, der all dies Elend schuf! (Parsifal) 5:27
[7] Du netztest mir die Füße (Parsifal) 7:04
[8] Wie dünkt mich doch die Aue heut‘ so schön ! (Parsifal) 16:00
[9] Geleiten wir im bergenden Schrein (Chorus) 4:48
[10] Ja, Wehe! Wehe! Weh‘ über mich! (Amfortas) 7:26
[11] Nur eine Waffe taugt (Parsifal) 8:47
Исполнители:
KUNDRY - MARTHA MÖDL
PARSIFAL - WOLFGANG WINDGASSEN
AMFORTAS - HANS HOTTER
GURNEMANZ - JOSEF GREINDL
KLINGSOR - GUSTAV NEIDLINGER
TITUREL - THEO ADAM
ERSTER GRALSRITTER - EUGENE TOBIN
ZWEITER GRALSRITTER - THEO ADAM
VIER KNAPPEN – HETTY PLÜMACHER, GISELA LITZ, GERHARD STOLZE, HUGO KRATZ
KLINGSORS ZAUBERMÄDCHEN – ILSE HOLLWEG, FRIEDL PÖLTINGER, HETTY PLÜMACHER, DOROTHEA SIEBERT, JUTTA VULPIUS, GISELA LITZ
ALTSOLO - HETTY PLÜMACHER
CHOR UND ORCHESTER DER BAYREUTHER FESTSPIELE
DIRIGENT HANS KNAPPERTSBUSCH
BAYREUTH 1954
Байройтский "Парсифаль" 1954 года из знаменитой "дюжины" Кнаппертсбушевских "Парсифалей" (конкретно эта же запись, но формате в mp3 доступна тут, там же есть ссылки на другие "Парсифали" из этой "дюжины"). Кто, как я, любит Грайндля и Виндгассена, тому ничего другого и не надо, тем более и качество записи очень хорошее. В раздачу включны сканы дисков, обложки и пародии на буклет (там фото бюста аффтара, треклист без времен и фотки других дисков из серии Archipel; прямо скажем, дизайнеры буклета не постарались вообще), а также либретто в формате epub (только на немецком, моего собственного изготовления) и либретто в формате pdf (параллельный английский и немецкий текст, с сайта английской компании Testament, знаменитой, например, вот этим совершенно неземного качества "Кольцом Нибелунга" - вот они при издании стараются). В файл каждого трека встроены обложка и соответствующая часть либретто (с вагнеровскими ремарками, так что, кто по-немецки читает, тот заодно может воображать себе действие).

Лог создания рипаDisk 1

Exact Audio Copy V1.0 beta 3 from 29. August 2011
Отчёт EAC об извлечении, выполненном 31. марта 2015, 15:57
Richard Wagner / Kna, Greindl, Hotter, Mödl, Windgassen, Adam, Neidlinger / Parsifal - Bayreuth 1954 Disk 1 of 4
Дисковод: MATSHITABD-MLT UJ240ES Adapter: 2 ID: 0
Режим чтения : Достоверность
Использование точного потока : Да
Отключение кэша аудио : Да
Использование указателей C2 : Нет
Коррекция смещения при чтении : 103
Способность читать области Lead-in и Lead-out : Нет
Заполнение пропущенных сэмплов тишиной : Да
Удаление блоков с тишиной в начале и конце : Нет
При вычислениях CRC использовались нулевые сэмплы : Да
Интерфейс : Встроенный Win32-интерфейс для Win NT/2000
Обработка зазоров : Добавлено к предыдущему треку
Выходной формат : Пользовательский кодировщик
Выбранный битрейт : 1024 kBit/s
Качество : Высокий
Добавление ID3-тега : Нет
Утилита сжатия : C:\Program Files (x86)\Exact Audio Copy\Flac\flac.exe
Дополнительные параметры : -V -8 -T "Genre=%genre%" -T "Artist=%artist%" -T "Title=%title%" -T "Album=%albumtitle%" -T "Date=%year%" -T "Tracknumber=%tracknr%" -T "Comment=%comment%" %source%
TOC извлечённого CD
Трек | Старт | Длительность | Начальный сектор | Конечный сектор
---------------------------------------------------------------------
1 | 0:00.00 | 13:29.62 | 0 | 60736
2 | 13:29.62 | 4:35.05 | 60737 | 81366
3 | 18:04.67 | 1:55.58 | 81367 | 90049
4 | 20:00.50 | 2:25.62 | 90050 | 100986
5 | 22:26.37 | 3:54.41 | 100987 | 118577
6 | 26:21.03 | 4:02.39 | 118578 | 136766
7 | 30:23.42 | 7:06.34 | 136767 | 168750
8 | 37:30.01 | 5:00.25 | 168751 | 191275
9 | 42:30.26 | 9:11.26 | 191276 | 232626
10 | 51:41.52 | 2:56.27 | 232627 | 245853
11 | 54:38.04 | 5:09.48 | 245854 | 269076
12 | 59:47.52 | 3:10.11 | 269077 | 283337
13 | 62:57.63 | 5:12.46 | 283338 | 306783
14 | 68:10.34 | 1:49.55 | 306784 | 315013
Трек 1
Имя файла C:\EAC rips\Wagner - Parsifal, Bayreuth 1954, Archipel\Disk 1\01. 1. Aufzug. Vorspiel.wav
Длина предзазора 0:00:02.00
Пиковый уровень 87.1 %
Скорость извлечения 3.1 X
Качество трека 100.0 %
CRC теста 948EB880
CRC копии 948EB880
Точное извлечение (достоверность 1) [3E9EE08B] (AR v2)
Копирование... OK
Трек 2
Имя файла C:\EAC rips\Wagner - Parsifal, Bayreuth 1954, Archipel\Disk 1\02. 1. Aufzug. He! Ho! Waldhüter ihr (Gurnemanz).wav
Пиковый уровень 61.7 %
Скорость извлечения 3.4 X
Качество трека 100.0 %
CRC теста FAE8B4CC
CRC копии FAE8B4CC
Точное извлечение (достоверность 1) [078E5D97] (AR v2)
Копирование... OK
Трек 3
Имя файла C:\EAC rips\Wagner - Parsifal, Bayreuth 1954, Archipel\Disk 1\03. 1. Aufzug. Toren wir, auf Lind'rung da zu hoffen (Gurnemanz).wav
Пиковый уровень 80.7 %
Скорость извлечения 3.1 X
Качество трека 100.0 %
CRC теста F3AC1C15
CRC копии F3AC1C15
Точное извлечение (достоверность 1) [049D0DE7] (AR v2)
Копирование... OK
Трек 4
Имя файла C:\EAC rips\Wagner - Parsifal, Bayreuth 1954, Archipel\Disk 1\04. 1. Aufzug. Hier! Nimm du! Balsam (Kundry).wav
Пиковый уровень 64.9 %
Скорость извлечения 3.4 X
Качество трека 100.0 %
CRC теста 394F272B
CRC копии 394F272B
Точное извлечение (достоверность 1) [64D84BD4] (AR v2)
Копирование... OK
Трек 5
Имя файла C:\EAC rips\Wagner - Parsifal, Bayreuth 1954, Archipel\Disk 1\05. 1. Aufzug. Recht so! Habt Dank! Ein wenig Rast (Amfortas).wav
Пиковый уровень 46.5 %
Скорость извлечения 3.8 X
Качество трека 100.0 %
CRC теста 76EE5665
CRC копии 76EE5665
Точное извлечение (достоверность 1) [F0BEF34E] (AR v2)
Копирование... OK
Трек 6
Имя файла C:\EAC rips\Wagner - Parsifal, Bayreuth 1954, Archipel\Disk 1\06. 1. Aufzug. 'Durch Mitleid wissend' - war's nicht so (Amfortas).wav
Пиковый уровень 77.9 %
Скорость извлечения 3.9 X
Качество трека 100.0 %
CRC теста 0C33AE83
CRC копии 0C33AE83
Точное извлечение (достоверность 1) [93D5E3B6] (AR v2)
Копирование... OK
Трек 7
Имя файла C:\EAC rips\Wagner - Parsifal, Bayreuth 1954, Archipel\Disk 1\07. 1. Aufzug. He! Du da! Was liegst du dort wie ein wildes Tier (3. Knappe).wav
Пиковый уровень 72.4 %
Скорость извлечения 4.5 X
Качество трека 100.0 %
CRC теста 89331838
CRC копии 89331838
Точное извлечение (достоверность 1) [003837BE] (AR v2)
Копирование... OK
Трек 8
Имя файла C:\EAC rips\Wagner - Parsifal, Bayreuth 1954, Archipel\Disk 1\08. 1. Aufzug. Das ist ein and'res, jedem ist's verwehrt (Gurnemanz).wav
Пиковый уровень 80.3 %
Скорость извлечения 4.5 X
Качество трека 100.0 %
CRC теста 63F0B4D4
CRC копии 63F0B4D4
Точное извлечение (достоверность 1) [20AAEE9F] (AR v2)
Копирование... OK
Трек 9
Имя файла C:\EAC rips\Wagner - Parsifal, Bayreuth 1954, Archipel\Disk 1\09. 1. Aufzug. Titurel, der fromme Held, der kannt' ihn wohl (Gurnemanz).wav
Пиковый уровень 79.9 %
Скорость извлечения 5.1 X
Качество трека 100.0 %
CRC теста 6AAACF18
CRC копии 6AAACF18
Точное извлечение (достоверность 1) [5DF4581F] (AR v2)
Копирование... OK
Трек 10
Имя файла C:\EAC rips\Wagner - Parsifal, Bayreuth 1954, Archipel\Disk 1\10. 1. Aufzug. Vor allem nun, der Speer kehr' uns zurück! (4. Knappe).wav
Пиковый уровень 48.3 %
Скорость извлечения 4.7 X
Качество трека 100.0 %
CRC теста BC6BE4B1
CRC копии BC6BE4B1
Точное извлечение (достоверность 1) [F70E914C] (AR v2)
Копирование... OK
Трек 11
Имя файла C:\EAC rips\Wagner - Parsifal, Bayreuth 1954, Archipel\Disk 1\11. 1. Aufzug. Weh'! Weh'! Hoho! Auf! Wer ist der Frevler (Knappen, Ritter).wav
Пиковый уровень 93.6 %
Скорость извлечения 5.2 X
Качество трека 100.0 %
CRC теста 0EF6C46A
CRC копии 0EF6C46A
Точное извлечение (достоверность 1) [7E5E2772] (AR v2)
Копирование... OK
Трек 12
Имя файла C:\EAC rips\Wagner - Parsifal, Bayreuth 1954, Archipel\Disk 1\12. 1. Aufzug. Wirst deiner Sündentat du inne (Gurnemanz).wav
Пиковый уровень 77.8 %
Скорость извлечения 4.9 X
Качество трека 100.0 %
CRC теста 9EE3F308
CRC копии 9EE3F308
Точное извлечение (достоверность 1) [25CA1BCF] (AR v2)
Копирование... OK
Трек 13
Имя файла C:\EAC rips\Wagner - Parsifal, Bayreuth 1954, Archipel\Disk 1\13. 1. Aufzug. Ich hab' eine Mutter, Herzeleide sie heißt (Parsifal).wav
Пиковый уровень 95.7 %
Скорость извлечения 5.5 X
Качество трека 100.0 %
CRC теста FC1226F6
CRC копии FC1226F6
Точное извлечение (достоверность 1) [AE6A56DC] (AR v2)
Копирование... OK
Трек 14
Имя файла C:\EAC rips\Wagner - Parsifal, Bayreuth 1954, Archipel\Disk 1\14. 1. Aufzug. Nie tu' ich Gutes, nur Ruhe will ich (Kundry).wav
Пиковый уровень 79.8 %
Скорость извлечения 4.6 X
Качество трека 100.0 %
CRC теста C906211A
CRC копии C906211A
Точное извлечение (достоверность 1) [71B886E9] (AR v2)
Копирование... OK
Все треки извлечены точно
Ошибок не произошло
Конец отчёта
==== Контрольная сумма отчёта 845DD1D43F2FCB415097E7B220D8C41E8830BD9A79A641F7745257B339BA640C ====

Disk 2

Exact Audio Copy V1.0 beta 3 from 29. August 2011
Отчёт EAC об извлечении, выполненном 31. марта 2015, 16:39
Richard Wagner / Kna, Greindl, Hotter, Mödl, Windgassen, Adam, Neidlinger / Parsifal - Bayreuth 1954 Disk 2 of 4
Дисковод: MATSHITABD-MLT UJ240ES Adapter: 2 ID: 0
Режим чтения : Достоверность
Использование точного потока : Да
Отключение кэша аудио : Да
Использование указателей C2 : Нет
Коррекция смещения при чтении : 103
Способность читать области Lead-in и Lead-out : Нет
Заполнение пропущенных сэмплов тишиной : Да
Удаление блоков с тишиной в начале и конце : Нет
При вычислениях CRC использовались нулевые сэмплы : Да
Интерфейс : Встроенный Win32-интерфейс для Win NT/2000
Обработка зазоров : Добавлено к предыдущему треку
Выходной формат : Пользовательский кодировщик
Выбранный битрейт : 1024 kBit/s
Качество : Высокий
Добавление ID3-тега : Нет
Утилита сжатия : C:\Program Files (x86)\Exact Audio Copy\Flac\flac.exe
Дополнительные параметры : -V -8 -T "Genre=%genre%" -T "Artist=%artist%" -T "Title=%title%" -T "Album=%albumtitle%" -T "Date=%year%" -T "Tracknumber=%tracknr%" -T "Comment=%comment%" %source%
TOC извлечённого CD
Трек | Старт | Длительность | Начальный сектор | Конечный сектор
---------------------------------------------------------------------
1 | 0:00.00 | 7:52.03 | 0 | 35402
2 | 7:52.03 | 6:22.24 | 35403 | 64076
3 | 14:14.27 | 6:41.74 | 64077 | 94225
4 | 20:56.26 | 5:44.57 | 94226 | 120082
5 | 26:41.08 | 5:50.25 | 120083 | 146357
6 | 32:31.33 | 5:26.70 | 146358 | 170877
7 | 37:58.28 | 5:26.71 | 170878 | 195398
8 | 43:25.24 | 2:35.03 | 195399 | 207026
Трек 1
Имя файла C:\EAC rips\Wagner - Parsifal, Bayreuth 1954, Archipel\Disk 2\01. 1. Aufzug. Vom Bade kehrt der König heim (Gurnemanz).wav
Длина предзазора 0:00:02.00
Пиковый уровень 96.7 %
Скорость извлечения 2.8 X
Качество трека 100.0 %
CRC теста 46EFFACF
CRC копии 46EFFACF
Точное извлечение (достоверность 1) [7E834AB7] (AR v2)
Копирование... OK
Трек 2
Имя файла C:\EAC rips\Wagner - Parsifal, Bayreuth 1954, Archipel\Disk 2\02. 1. Aufzug. Zum letzten Liebesmahle (Chorus).wav
Пиковый уровень 73.7 %
Скорость извлечения 3.0 X
Качество трека 99.9 %
CRC теста 48D962DA
CRC копии 48D962DA
Точное извлечение (достоверность 1) [3102508B] (AR v2)
Копирование... OK
Трек 3
Имя файла C:\EAC rips\Wagner - Parsifal, Bayreuth 1954, Archipel\Disk 2\03. 1. Aufzug. Mein Sohn Amfortas, bist du am Amt (Titurel).wav
Пиковый уровень 69.6 %
Скорость извлечения 3.6 X
Качество трека 100.0 %
CRC теста C79AC354
CRC копии C79AC354
Точное извлечение (достоверность 1) [2378A351] (AR v2)
Копирование... OK
Трек 4
Имя файла C:\EAC rips\Wagner - Parsifal, Bayreuth 1954, Archipel\Disk 2\04. 1. Aufzug. Des Weihgefäßes göttlicher Gehalt (Amfortas).wav
Пиковый уровень 69.6 %
Скорость извлечения 3.9 X
Качество трека 100.0 %
CRC теста B50D6846
CRC копии B50D6846
Точное извлечение (достоверность 1) [21CDF43C] (AR v2)
Копирование... OK
Трек 5
Имя файла C:\EAC rips\Wagner - Parsifal, Bayreuth 1954, Archipel\Disk 2\05. 1. Aufzug. Enthüllet den Gral! (Titurel).wav
Пиковый уровень 66.9 %
Скорость извлечения 4.2 X
Качество трека 100.0 %
CRC теста 2B83C846
CRC копии 2B83C846
Точное извлечение (достоверность 1) [FC4AF1FD] (AR v2)
Копирование... OK
Трек 6
Имя файла C:\EAC rips\Wagner - Parsifal, Bayreuth 1954, Archipel\Disk 2\06. 1. Aufzug. Oh! Heilige Wonne (Titurel).wav
Пиковый уровень 73.7 %
Скорость извлечения 4.4 X
Качество трека 100.0 %
CRC теста E1F9A541
CRC копии E1F9A541
Точное извлечение (достоверность 1) [D1649F41] (AR v2)
Копирование... OK
Трек 7
Имя файла C:\EAC rips\Wagner - Parsifal, Bayreuth 1954, Archipel\Disk 2\07. 1. Aufzug. Selig im Glauben! (Chorus).wav
Пиковый уровень 62.6 %
Скорость извлечения 4.6 X
Качество трека 100.0 %
CRC теста 713ED252
CRC копии 713ED252
Точное извлечение (достоверность 1) [85895BA7] (AR v2)
Копирование... OK
Трек 8
Имя файла C:\EAC rips\Wagner - Parsifal, Bayreuth 1954, Archipel\Disk 2\08. 1. Aufzug. Was stehst du noch da (Gurnemanz).wav
Пиковый уровень 65.2 %
Скорость извлечения 3.6 X
Качество трека 99.9 %
CRC теста 44882A4D
CRC копии 44882A4D
Точное извлечение (достоверность 1) [9BD02B87] (AR v2)
Копирование... OK
Все треки извлечены точно
Ошибок не произошло
Конец отчёта
==== Контрольная сумма отчёта 3BC7119DBDC1F4D9B52A9F12A96E8CDBD557230F20DAAA0724C8950CF6711BDA ====

Disk 3

Exact Audio Copy V1.0 beta 3 from 29. August 2011
Отчёт EAC об извлечении, выполненном 31. марта 2015, 18:42
Richard Wagner / Kna, Greindl, Hotter, Mödl, Windgassen, Adam, Neidlinger / Parsifal - Bayreuth 1954 Disk 3 of 4
Дисковод: MATSHITABD-MLT UJ240ES Adapter: 2 ID: 0
Режим чтения : Достоверность
Использование точного потока : Да
Отключение кэша аудио : Да
Использование указателей C2 : Нет
Коррекция смещения при чтении : 103
Способность читать области Lead-in и Lead-out : Нет
Заполнение пропущенных сэмплов тишиной : Да
Удаление блоков с тишиной в начале и конце : Нет
При вычислениях CRC использовались нулевые сэмплы : Да
Интерфейс : Встроенный Win32-интерфейс для Win NT/2000
Обработка зазоров : Добавлено к предыдущему треку
Выходной формат : Пользовательский кодировщик
Выбранный битрейт : 1024 kBit/s
Качество : Высокий
Добавление ID3-тега : Нет
Утилита сжатия : C:\Program Files (x86)\Exact Audio Copy\Flac\flac.exe
Дополнительные параметры : -V -8 -T "Genre=%genre%" -T "Artist=%artist%" -T "Title=%title%" -T "Album=%albumtitle%" -T "Date=%year%" -T "Tracknumber=%tracknr%" -T "Comment=%comment%" %source%
TOC извлечённого CD
Трек | Старт | Длительность | Начальный сектор | Конечный сектор
---------------------------------------------------------------------
1 | 0:00.00 | 2:09.27 | 0 | 9701
2 | 2:09.27 | 4:04.18 | 9702 | 28019
3 | 6:13.45 | 3:31.23 | 28020 | 43867
4 | 9:44.68 | 5:16.17 | 43868 | 67584
5 | 15:01.10 | 2:37.03 | 67585 | 79362
6 | 17:38.13 | 1:56.00 | 79363 | 88062
7 | 19:34.13 | 2:13.52 | 88063 | 98089
8 | 21:47.65 | 5:26.16 | 98090 | 122555
9 | 27:14.06 | 3:13.14 | 122556 | 137044
10 | 30:27.20 | 3:33.32 | 137045 | 153051
11 | 34:00.52 | 5:54.61 | 153052 | 179662
12 | 39:55.38 | 5:37.68 | 179663 | 205005
13 | 45:33.31 | 6:39.30 | 205006 | 234960
14 | 52:12.61 | 5:27.22 | 234961 | 259507
15 | 57:40.08 | 3:24.67 | 259508 | 274874
16 | 61:05.00 | 5:53.07 | 274875 | 301356
17 | 66:58.07 | 1:40.31 | 301357 | 308887
18 | 68:38.38 | 2:36.58 | 308888 | 320645
19 | 71:15.21 | 5:11.19 | 320646 | 343989
Трек 1
Имя файла C:\EAC rips\Wagner - Parsifal, Bayreuth 1954, Archipel\Disk 3 - 2. Aufzug von Anfang bis zu Ende. - 3. Aufzug. Vorspiel\01. 2. Aufzug. Vorspiel.wav
Длина предзазора 0:00:02.00
Пиковый уровень 89.7 %
Скорость извлечения 2.2 X
Качество трека 100.0 %
CRC теста FB7C0DED
CRC копии FB7C0DED
Точное извлечение (достоверность 1) [EBB48A20] (AR v2)
Копирование... OK
Трек 2
Имя файла C:\EAC rips\Wagner - Parsifal, Bayreuth 1954, Archipel\Disk 3 - 2. Aufzug von Anfang bis zu Ende. - 3. Aufzug. Vorspiel\02. 2. Aufzug. Die Zeit ist da (Klingsor).wav
Пиковый уровень 84.3 %
Скорость извлечения 2.7 X
Качество трека 100.0 %
CRC теста 62A21D0E
CRC копии 62A21D0E
Точное извлечение (достоверность 1) [373DF09D] (AR v2)
Копирование... OK
Трек 3
Имя файла C:\EAC rips\Wagner - Parsifal, Bayreuth 1954, Archipel\Disk 3 - 2. Aufzug von Anfang bis zu Ende. - 3. Aufzug. Vorspiel\03. 2. Aufzug. Ach! Ach! Tiefe Nacht! Wahnsinn! (Kundry).wav
Пиковый уровень 74.6 %
Скорость извлечения 2.9 X
Качество трека 100.0 %
CRC теста A58538A0
CRC копии A58538A0
Точное извлечение (достоверность 1) [C5579F96] (AR v2)
Копирование... OK
Трек 4
Имя файла C:\EAC rips\Wagner - Parsifal, Bayreuth 1954, Archipel\Disk 3 - 2. Aufzug von Anfang bis zu Ende. - 3. Aufzug. Vorspiel\04. 2. Aufzug. Furchtbare Not! (Klingsor).wav
Пиковый уровень 85.4 %
Скорость извлечения 3.3 X
Качество трека 100.0 %
CRC теста 35DAF399
CRC копии 35DAF399
Точное извлечение (достоверность 1) [4E24B9DC] (AR v2)
Копирование... OK
Трек 5
Имя файла C:\EAC rips\Wagner - Parsifal, Bayreuth 1954, Archipel\Disk 3 - 2. Aufzug von Anfang bis zu Ende. - 3. Aufzug. Vorspiel\05. 2. Aufzug. Seine Wunde trägt jeder nach heim! (Klingsor).wav
Пиковый уровень 52.8 %
Скорость извлечения 2.7 X
Качество трека 99.9 %
CRC теста 073D3DF8
CRC копии 073D3DF8
Точное извлечение (достоверность 1) [70329021] (AR v2)
Копирование... OK
Трек 6
Имя файла C:\EAC rips\Wagner - Parsifal, Bayreuth 1954, Archipel\Disk 3 - 2. Aufzug von Anfang bis zu Ende. - 3. Aufzug. Vorspiel\06. 2. Aufzug. Hier war das Tosen (Zaubermädchen).wav
Пиковый уровень 69.6 %
Скорость извлечения 3.0 X
Качество трека 100.0 %
CRC теста 14959103
CRC копии 14959103
Точное извлечение (достоверность 1) [390F3191] (AR v2)
Копирование... OK
Трек 7
Имя файла C:\EAC rips\Wagner - Parsifal, Bayreuth 1954, Archipel\Disk 3 - 2. Aufzug von Anfang bis zu Ende. - 3. Aufzug. Vorspiel\07. 2. Aufzug. Ihr schönen Kinder, mußt' ich sie nicht schlagen (Parsifal).wav
Пиковый уровень 70.6 %
Скорость извлечения 3.2 X
Качество трека 100.0 %
CRC теста 81DDE7EB
CRC копии 81DDE7EB
Точное извлечение (достоверность 1) [862F8191] (AR v2)
Копирование... OK
Трек 8
Имя файла C:\EAC rips\Wagner - Parsifal, Bayreuth 1954, Archipel\Disk 3 - 2. Aufzug von Anfang bis zu Ende. - 3. Aufzug. Vorspiel\08. 2. Aufzug. Komm! Komm! Holder Knabe! (Zaubermädchen).wav
Пиковый уровень 70.6 %
Скорость извлечения 3.9 X
Качество трека 100.0 %
CRC теста CD34C987
CRC копии CD34C987
Точное извлечение (достоверность 1) [C872EE2C] (AR v2)
Копирование... OK
Трек 9
Имя файла C:\EAC rips\Wagner - Parsifal, Bayreuth 1954, Archipel\Disk 3 - 2. Aufzug von Anfang bis zu Ende. - 3. Aufzug. Vorspiel\09. 2. Aufzug. Parsifal! Weile! (Kundry).wav
Пиковый уровень 74.6 %
Скорость извлечения 3.3 X
Качество трека 99.9 %
CRC теста AFF94D3F
CRC копии AFF94D3F
Точное извлечение (достоверность 1) [C6ECBEE1] (AR v2)
Копирование... OK
Трек 10
Имя файла C:\EAC rips\Wagner - Parsifal, Bayreuth 1954, Archipel\Disk 3 - 2. Aufzug von Anfang bis zu Ende. - 3. Aufzug. Vorspiel\10. 2. Aufzug. Dies alles hab' ich nur geträumt (Parsifal).wav
Пиковый уровень 54.6 %
Скорость извлечения 3.5 X
Качество трека 99.9 %
CRC теста 7A9AED24
CRC копии 7A9AED24
Точное извлечение (достоверность 1) [8E00A92E] (AR v2)
Копирование... OK
Трек 11
Имя файла C:\EAC rips\Wagner - Parsifal, Bayreuth 1954, Archipel\Disk 3 - 2. Aufzug von Anfang bis zu Ende. - 3. Aufzug. Vorspiel\11. 2. Aufzug. Ich sah das Kind an seiner Mutter Brust (Kundry).wav
Пиковый уровень 72.2 %
Скорость извлечения 4.5 X
Качество трека 100.0 %
CRC теста DB30632C
CRC копии DB30632C
Точное извлечение (достоверность 1) [DB714159] (AR v2)
Копирование... OK
Трек 12
Имя файла C:\EAC rips\Wagner - Parsifal, Bayreuth 1954, Archipel\Disk 3 - 2. Aufzug von Anfang bis zu Ende. - 3. Aufzug. Vorspiel\12. 2. Aufzug. Wehe! Wehe! Was tat ich (Parsifal).wav
Пиковый уровень 71.8 %
Скорость извлечения 4.7 X
Качество трека 100.0 %
CRC теста A8F75B87
CRC копии A8F75B87
Точное извлечение (достоверность 1) [C395E581] (AR v2)
Копирование... OK
Трек 13
Имя файла C:\EAC rips\Wagner - Parsifal, Bayreuth 1954, Archipel\Disk 3 - 2. Aufzug von Anfang bis zu Ende. - 3. Aufzug. Vorspiel\13. 2. Aufzug. Amfortas! Die Wunde! (Parsifal).wav
Пиковый уровень 77.5 %
Скорость извлечения 4.6 X
Качество трека 99.9 %
CRC теста D8DD989C
CRC копии D8DD989C
Точное извлечение (достоверность 1) [4D49A226] (AR v2)
Копирование... OK
Трек 14
Имя файла C:\EAC rips\Wagner - Parsifal, Bayreuth 1954, Archipel\Disk 3 - 2. Aufzug von Anfang bis zu Ende. - 3. Aufzug. Vorspiel\14. 2. Aufzug. Gelobter Held! (Kundry).wav
Пиковый уровень 83.1 %
Скорость извлечения 5.1 X
Качество трека 100.0 %
CRC теста CA0F0F6E
CRC копии CA0F0F6E
Точное извлечение (достоверность 1) [A85B578F] (AR v2)
Копирование... OK
Трек 15
Имя файла C:\EAC rips\Wagner - Parsifal, Bayreuth 1954, Archipel\Disk 3 - 2. Aufzug von Anfang bis zu Ende. - 3. Aufzug. Vorspiel\15. 2. Aufzug. Nun such' ich ihn von Welt zu Welt (Kundry).wav
Пиковый уровень 69.4 %
Скорость извлечения 4.9 X
Качество трека 100.0 %
CRC теста 6B85A2BB
CRC копии 6B85A2BB
Точное извлечение (достоверность 1) [9DB59BA8] (AR v2)
Копирование... OK
Трек 16
Имя файла C:\EAC rips\Wagner - Parsifal, Bayreuth 1954, Archipel\Disk 3 - 2. Aufzug von Anfang bis zu Ende. - 3. Aufzug. Vorspiel\16. 2. Aufzug. Auf Ewigkeit wärst du verdammt (Parsifal).wav
Пиковый уровень 76.2 %
Скорость извлечения 5.4 X
Качество трека 100.0 %
CRC теста AC74779D
CRC копии AC74779D
Точное извлечение (достоверность 1) [9608934F] (AR v2)
Копирование... OK
Трек 17
Имя файла C:\EAC rips\Wagner - Parsifal, Bayreuth 1954, Archipel\Disk 3 - 2. Aufzug von Anfang bis zu Ende. - 3. Aufzug. Vorspiel\17. 2. Aufzug. Vergeh', unseliges Weib! (Parsifal).wav
Пиковый уровень 88.7 %
Скорость извлечения 4.4 X
Качество трека 100.0 %
CRC теста FAA5D2D9
CRC копии FAA5D2D9
Точное извлечение (достоверность 1) [5A368CD3] (AR v2)
Копирование... OK
Трек 18
Имя файла C:\EAC rips\Wagner - Parsifal, Bayreuth 1954, Archipel\Disk 3 - 2. Aufzug von Anfang bis zu Ende. - 3. Aufzug. Vorspiel\18. 2. Aufzug. Halt da! Dich bann' ich mit der rechten Wehr! (Klingsor).wav
Пиковый уровень 79.0 %
Скорость извлечения 5.0 X
Качество трека 100.0 %
CRC теста D0A06B4D
CRC копии D0A06B4D
Точное извлечение (достоверность 1) [CB4BE747] (AR v2)
Копирование... OK
Трек 19
Имя файла C:\EAC rips\Wagner - Parsifal, Bayreuth 1954, Archipel\Disk 3 - 2. Aufzug von Anfang bis zu Ende. - 3. Aufzug. Vorspiel\19. 3. Aufzug. Vorspiel.wav
Длина предзазора 0:00:03.00
Пиковый уровень 48.6 %
Скорость извлечения 5.6 X
Качество трека 100.0 %
CRC теста 6A6D998E
CRC копии 6A6D998E
Точное извлечение (достоверность 1) [783ECA1F] (AR v2)
Копирование... OK
Все треки извлечены точно
Ошибок не произошло
Конец отчёта
==== Контрольная сумма отчёта C99C9F9394467F550889C616624C0C55F601BEC0EF10EF287FA59E1AA15DC416 ====

Disk 4

Exact Audio Copy V1.0 beta 3 from 29. August 2011
Отчёт EAC об извлечении, выполненном 31. марта 2015, 19:40
Richard Wagner / Kna, Greindl, Hotter, Mödl, Windgassen, Adam, Neidlinger / Parsifal - Bayreuth 1954 Disk 4 of 4
Дисковод: MATSHITABD-MLT UJ240ES Adapter: 2 ID: 0
Режим чтения : Достоверность
Использование точного потока : Да
Отключение кэша аудио : Да
Использование указателей C2 : Нет
Коррекция смещения при чтении : 103
Способность читать области Lead-in и Lead-out : Нет
Заполнение пропущенных сэмплов тишиной : Да
Удаление блоков с тишиной в начале и конце : Нет
При вычислениях CRC использовались нулевые сэмплы : Да
Интерфейс : Встроенный Win32-интерфейс для Win NT/2000
Обработка зазоров : Добавлено к предыдущему треку
Выходной формат : Пользовательский кодировщик
Выбранный битрейт : 1024 kBit/s
Качество : Высокий
Добавление ID3-тега : Нет
Утилита сжатия : C:\Program Files (x86)\Exact Audio Copy\Flac\flac.exe
Дополнительные параметры : -V -8 -T "Genre=%genre%" -T "Artist=%artist%" -T "Title=%title%" -T "Album=%albumtitle%" -T "Date=%year%" -T "Tracknumber=%tracknr%" -T "Comment=%comment%" %source%
TOC извлечённого CD
Трек | Старт | Длительность | Начальный сектор | Конечный сектор
---------------------------------------------------------------------
1 | 0:00.00 | 5:25.16 | 0 | 24390
2 | 5:25.16 | 3:52.05 | 24391 | 41795
3 | 9:17.21 | 7:29.74 | 41796 | 75544
4 | 16:47.20 | 3:16.09 | 75545 | 90253
5 | 20:03.29 | 6:53.17 | 90254 | 121245
6 | 26:56.46 | 5:27.06 | 121246 | 145776
7 | 32:23.52 | 7:04.25 | 145777 | 177601
8 | 39:28.02 | 16:00.01 | 177602 | 249602
9 | 55:28.03 | 4:48.56 | 249603 | 271258
10 | 60:16.59 | 7:26.22 | 271259 | 304730
11 | 67:43.06 | 8:47.51 | 304731 | 344306
Трек 1
Имя файла C:\EAC rips\Wagner - Parsifal, Bayreuth 1954, Archipel\Disk 4 - 3. Aufzug von 'Von dorther kam' bis zu Ende\01. 3. Aufzug. Von dorther kam das Stöhnen (Gurnemanz).wav
Длина предзазора 0:00:02.00
Пиковый уровень 59.7 %
Скорость извлечения 2.7 X
Качество трека 100.0 %
CRC теста E1B7C37A
CRC копии E1B7C37A
Точное извлечение (достоверность 1) [199088F8] (AR v2)
Копирование... OK
Трек 2
Имя файла C:\EAC rips\Wagner - Parsifal, Bayreuth 1954, Archipel\Disk 4 - 3. Aufzug von 'Von dorther kam' bis zu Ende\02. 3. Aufzug. Dienen! Dienen! (Kundry).wav
Пиковый уровень 49.7 %
Скорость извлечения 2.6 X
Качество трека 99.9 %
CRC теста 805305FD
CRC копии 805305FD
Точное извлечение (достоверность 1) [1411E8C4] (AR v2)
Копирование... OK
Трек 3
Имя файла C:\EAC rips\Wagner - Parsifal, Bayreuth 1954, Archipel\Disk 4 - 3. Aufzug von 'Von dorther kam' bis zu Ende\03. 3. Aufzug. Heil dir, mein Gast! (Gurnemanz).wav
Пиковый уровень 65.3 %
Скорость извлечения 3.5 X
Качество трека 100.0 %
CRC теста 22F6A78D
CRC копии 22F6A78D
Точное извлечение (достоверность 1) [4FF89088] (AR v2)
Копирование... OK
Трек 4
Имя файла C:\EAC rips\Wagner - Parsifal, Bayreuth 1954, Archipel\Disk 4 - 3. Aufzug von 'Von dorther kam' bis zu Ende\04. 3. Aufzug. Der Irrnis und der Leiden Pfade (Parsifal).wav
Пиковый уровень 73.4 %
Скорость извлечения 3.4 X
Качество трека 100.0 %
CRC теста F173F9CC
CRC копии F173F9CC
Точное извлечение (достоверность 1) [58716BEA] (AR v2)
Копирование... OK
Трек 5
Имя файла C:\EAC rips\Wagner - Parsifal, Bayreuth 1954, Archipel\Disk 4 - 3. Aufzug von 'Von dorther kam' bis zu Ende\05. 3. Aufzug. O Gnade! Höchstes Heil! (Gurnemanz).wav
Пиковый уровень 67.5 %
Скорость извлечения 4.0 X
Качество трека 100.0 %
CRC теста 5CEE6C06
CRC копии 5CEE6C06
Точное извлечение (достоверность 1) [60221388] (AR v2)
Копирование... OK
Трек 6
Имя файла C:\EAC rips\Wagner - Parsifal, Bayreuth 1954, Archipel\Disk 4 - 3. Aufzug von 'Von dorther kam' bis zu Ende\06. 3. Aufzug. Und ich, ich bin's, der all dies Elend schuf! (Parsifal).wav
Пиковый уровень 92.5 %
Скорость извлечения 4.1 X
Качество трека 100.0 %
CRC теста 8AE95C94
CRC копии 8AE95C94
Точное извлечение (достоверность 1) [DCF7A250] (AR v2)
Копирование... OK
Трек 7
Имя файла C:\EAC rips\Wagner - Parsifal, Bayreuth 1954, Archipel\Disk 4 - 3. Aufzug von 'Von dorther kam' bis zu Ende\07. 3. Aufzug. Du netztest mir die Füße (Parsifal).wav
Пиковый уровень 73.6 %
Скорость извлечения 4.5 X
Качество трека 100.0 %
CRC теста BEB5DD28
CRC копии BEB5DD28
Точное извлечение (достоверность 1) [EA3FDD39] (AR v2)
Копирование... OK
Трек 8
Имя файла C:\EAC rips\Wagner - Parsifal, Bayreuth 1954, Archipel\Disk 4 - 3. Aufzug von 'Von dorther kam' bis zu Ende\08. 3. Aufzug. Wie dünkt mich doch die Aue heut' so schön! (Parsifal).wav
Пиковый уровень 96.4 %
Скорость извлечения 5.2 X
Качество трека 100.0 %
CRC теста EC913B9E
CRC копии EC913B9E
Точное извлечение (достоверность 1) [377CAB2F] (AR v2)
Копирование... OK
Трек 9
Имя файла C:\EAC rips\Wagner - Parsifal, Bayreuth 1954, Archipel\Disk 4 - 3. Aufzug von 'Von dorther kam' bis zu Ende\09. 3. Aufzug. Geleiten wir im bergenden Schrein (Chorus).wav
Пиковый уровень 82.9 %
Скорость извлечения 5.1 X
Качество трека 100.0 %
CRC теста 9EBC50CE
CRC копии 9EBC50CE
Точное извлечение (достоверность 1) [C6257F3A] (AR v2)
Копирование... OK
Трек 10
Имя файла C:\EAC rips\Wagner - Parsifal, Bayreuth 1954, Archipel\Disk 4 - 3. Aufzug von 'Von dorther kam' bis zu Ende\10. 3. Aufzug. Ja, Wehe! Wehe! Weh' über mich! (Amfortas).wav
Пиковый уровень 69.0 %
Скорость извлечения 5.5 X
Качество трека 100.0 %
CRC теста CFE1D97E
CRC копии CFE1D97E
Точное извлечение (достоверность 1) [3437BC4F] (AR v2)
Копирование... OK
Трек 11
Имя файла C:\EAC rips\Wagner - Parsifal, Bayreuth 1954, Archipel\Disk 4 - 3. Aufzug von 'Von dorther kam' bis zu Ende\11. 3. Aufzug. Nur eine Waffe taugt (Parsifal).wav
Пиковый уровень 81.7 %
Скорость извлечения 5.9 X
Качество трека 100.0 %
CRC теста 68ABFC23
CRC копии 68ABFC23
Точное извлечение (достоверность 1) [1727263B] (AR v2)
Копирование... OK
Все треки извлечены точно
Ошибок не произошло
Конец отчёта
==== Контрольная сумма отчёта 4B35A6C33E46389E3BD196366CB9A94AC67725FE19657BB0842DD88D8B2823AB ====

Содержание индексной карты (.CUE)Disk 1

REM GENRE classical
REM DATE 2005
REM DISCID C010680E
REM COMMENT "ExactAudioCopy v1.0b3"
PERFORMER "Richard Wagner / Kna, Greindl, Hotter, Mödl, Windgassen, Adam, Neidlinger"
TITLE "Parsifal - Bayreuth 1954 Disk 1 of 4"
FILE "01. 1. Aufzug. Vorspiel.wav" WAVE
TRACK 01 AUDIO
TITLE "1. Aufzug. Vorspiel"
PERFORMER "Richard Wagner / Kna, Greindl, Hotter, Mödl, Windgassen, Adam, Neidlinger"
FLAGS DCP
INDEX 01 00:00:00
FILE "02. 1. Aufzug. He! Ho! Waldhüter ihr (Gurnemanz).wav" WAVE
TRACK 02 AUDIO
TITLE "1. Aufzug. He! Ho! Waldhüter ihr (Gurnemanz)"
PERFORMER "Richard Wagner / Kna, Greindl, Hotter, Mödl, Windgassen, Adam, Neidlinger"
FLAGS DCP
INDEX 01 00:00:00
FILE "03. 1. Aufzug. Toren wir, auf Lind'rung da zu hoffen (Gurnemanz).wav" WAVE
TRACK 03 AUDIO
TITLE "1. Aufzug. Toren wir, auf Lind'rung da zu hoffen (Gurnemanz)"
PERFORMER "Richard Wagner / Kna, Greindl, Hotter, Mödl, Windgassen, Adam, Neidlinger"
FLAGS DCP
INDEX 01 00:00:00
FILE "04. 1. Aufzug. Hier! Nimm du! Balsam (Kundry).wav" WAVE
TRACK 04 AUDIO
TITLE "1. Aufzug. Hier! Nimm du! Balsam (Kundry)"
PERFORMER "Richard Wagner / Kna, Greindl, Hotter, Mödl, Windgassen, Adam, Neidlinger"
FLAGS DCP
INDEX 01 00:00:00
FILE "05. 1. Aufzug. Recht so! Habt Dank! Ein wenig Rast (Amfortas).wav" WAVE
TRACK 05 AUDIO
TITLE "1. Aufzug. Recht so! Habt Dank! Ein wenig Rast (Amfortas)"
PERFORMER "Richard Wagner / Kna, Greindl, Hotter, Mödl, Windgassen, Adam, Neidlinger"
FLAGS DCP
INDEX 01 00:00:00
FILE "06. 1. Aufzug. 'Durch Mitleid wissend' - war's nicht so (Amfortas).wav" WAVE
TRACK 06 AUDIO
TITLE "1. Aufzug. 'Durch Mitleid wissend' - war's nicht so (Amfortas)"
PERFORMER "Richard Wagner / Kna, Greindl, Hotter, Mödl, Windgassen, Adam, Neidlinger"
FLAGS DCP
INDEX 01 00:00:00
FILE "07. 1. Aufzug. He! Du da! Was liegst du dort wie ein wildes Tier (3. Knappe).wav" WAVE
TRACK 07 AUDIO
TITLE "1. Aufzug. He! Du da! Was liegst du dort wie ein wildes Tier (3. Knappe)"
PERFORMER "Richard Wagner / Kna, Greindl, Hotter, Mödl, Windgassen, Adam, Neidlinger"
FLAGS DCP
INDEX 01 00:00:00
FILE "08. 1. Aufzug. Das ist ein and'res, jedem ist's verwehrt (Gurnemanz).wav" WAVE
TRACK 08 AUDIO
TITLE "1. Aufzug. Das ist ein and'res, jedem ist's verwehrt (Gurnemanz)"
PERFORMER "Richard Wagner / Kna, Greindl, Hotter, Mödl, Windgassen, Adam, Neidlinger"
FLAGS DCP
INDEX 01 00:00:00
FILE "09. 1. Aufzug. Titurel, der fromme Held, der kannt' ihn wohl (Gurnemanz).wav" WAVE
TRACK 09 AUDIO
TITLE "1. Aufzug. Titurel, der fromme Held, der kannt' ihn wohl (Gurnemanz)"
PERFORMER "Richard Wagner / Kna, Greindl, Hotter, Mödl, Windgassen, Adam, Neidlinger"
FLAGS DCP
INDEX 01 00:00:00
FILE "10. 1. Aufzug. Vor allem nun, der Speer kehr' uns zurück! (4. Knappe).wav" WAVE
TRACK 10 AUDIO
TITLE "1. Aufzug. Vor allem nun, der Speer kehr' uns zurück! (4. Knappe)"
PERFORMER "Richard Wagner / Kna, Greindl, Hotter, Mödl, Windgassen, Adam, Neidlinger"
FLAGS DCP
INDEX 01 00:00:00
FILE "11. 1. Aufzug. Weh'! Weh'! Hoho! Auf! Wer ist der Frevler (Knappen, Ritter).wav" WAVE
TRACK 11 AUDIO
TITLE "1. Aufzug. Weh'! Weh'! Hoho! Auf! Wer ist der Frevler (Knappen, Ritter)"
PERFORMER "Richard Wagner / Kna, Greindl, Hotter, Mödl, Windgassen, Adam, Neidlinger"
FLAGS DCP
INDEX 01 00:00:00
FILE "12. 1. Aufzug. Wirst deiner Sündentat du inne (Gurnemanz).wav" WAVE
TRACK 12 AUDIO
TITLE "1. Aufzug. Wirst deiner Sündentat du inne (Gurnemanz)"
PERFORMER "Richard Wagner / Kna, Greindl, Hotter, Mödl, Windgassen, Adam, Neidlinger"
FLAGS DCP
INDEX 01 00:00:00
FILE "13. 1. Aufzug. Ich hab' eine Mutter, Herzeleide sie heißt (Parsifal).wav" WAVE
TRACK 13 AUDIO
TITLE "1. Aufzug. Ich hab' eine Mutter, Herzeleide sie heißt (Parsifal)"
PERFORMER "Richard Wagner / Kna, Greindl, Hotter, Mödl, Windgassen, Adam, Neidlinger"
FLAGS DCP
INDEX 01 00:00:00
FILE "14. 1. Aufzug. Nie tu' ich Gutes, nur Ruhe will ich (Kundry).wav" WAVE
TRACK 14 AUDIO
TITLE "1. Aufzug. Nie tu' ich Gutes, nur Ruhe will ich (Kundry)"
PERFORMER "Richard Wagner / Kna, Greindl, Hotter, Mödl, Windgassen, Adam, Neidlinger"
FLAGS DCP
INDEX 01 00:00:00

Disk 2

REM GENRE Classical
REM DATE 2005
REM DISCID 6B0AC808
REM COMMENT "ExactAudioCopy v1.0b3"
PERFORMER "Richard Wagner / Kna, Greindl, Hotter, Mödl, Windgassen, Adam, Neidlinger"
TITLE "Parsifal - Bayreuth 1954 Disk 2 of 4"
FILE "01. 1. Aufzug. Vom Bade kehrt der König heim (Gurnemanz).wav" WAVE
TRACK 01 AUDIO
TITLE "1. Aufzug. Vom Bade kehrt der König heim (Gurnemanz)"
PERFORMER "Richard Wagner / Kna, Greindl, Hotter, Mödl, Windgassen, Adam, Neidlinger"
FLAGS DCP
INDEX 01 00:00:00
FILE "02. 1. Aufzug. Zum letzten Liebesmahle (Chorus).wav" WAVE
TRACK 02 AUDIO
TITLE "1. Aufzug. Zum letzten Liebesmahle (Chorus)"
PERFORMER "Richard Wagner / Kna, Greindl, Hotter, Mödl, Windgassen, Adam, Neidlinger"
FLAGS DCP
INDEX 01 00:00:00
FILE "03. 1. Aufzug. Mein Sohn Amfortas, bist du am Amt (Titurel).wav" WAVE
TRACK 03 AUDIO
TITLE "1. Aufzug. Mein Sohn Amfortas, bist du am Amt (Titurel)"
PERFORMER "Richard Wagner / Kna, Greindl, Hotter, Mödl, Windgassen, Adam, Neidlinger"
FLAGS DCP
INDEX 01 00:00:00
FILE "04. 1. Aufzug. Des Weihgefäßes göttlicher Gehalt (Amfortas).wav" WAVE
TRACK 04 AUDIO
TITLE "1. Aufzug. Des Weihgefäßes göttlicher Gehalt (Amfortas)"
PERFORMER "Richard Wagner / Kna, Greindl, Hotter, Mödl, Windgassen, Adam, Neidlinger"
FLAGS DCP
INDEX 01 00:00:00
FILE "05. 1. Aufzug. Enthüllet den Gral! (Titurel).wav" WAVE
TRACK 05 AUDIO
TITLE "1. Aufzug. Enthüllet den Gral! (Titurel)"
PERFORMER "Richard Wagner / Kna, Greindl, Hotter, Mödl, Windgassen, Adam, Neidlinger"
FLAGS DCP
INDEX 01 00:00:00
FILE "06. 1. Aufzug. Oh! Heilige Wonne (Titurel).wav" WAVE
TRACK 06 AUDIO
TITLE "1. Aufzug. Oh! Heilige Wonne (Titurel)"
PERFORMER "Richard Wagner / Kna, Greindl, Hotter, Mödl, Windgassen, Adam, Neidlinger"
FLAGS DCP
INDEX 01 00:00:00
FILE "07. 1. Aufzug. Selig im Glauben! (Chorus).wav" WAVE
TRACK 07 AUDIO
TITLE "1. Aufzug. Selig im Glauben! (Chorus)"
PERFORMER "Richard Wagner / Kna, Greindl, Hotter, Mödl, Windgassen, Adam, Neidlinger"
FLAGS DCP
INDEX 01 00:00:00
FILE "08. 1. Aufzug. Was stehst du noch da (Gurnemanz).wav" WAVE
TRACK 08 AUDIO
TITLE "1. Aufzug. Was stehst du noch da (Gurnemanz)"
PERFORMER "Richard Wagner / Kna, Greindl, Hotter, Mödl, Windgassen, Adam, Neidlinger"
FLAGS DCP
INDEX 01 00:00:00

Disk 3

REM GENRE Classical
REM DATE 2005
REM DISCID FB11EA13
REM COMMENT "ExactAudioCopy v1.0b3"
PERFORMER "Richard Wagner / Kna, Greindl, Hotter, Mödl, Windgassen, Adam, Neidlinger"
TITLE "Parsifal - Bayreuth 1954 Disk 3 of 4"
FILE "01. 2. Aufzug. Vorspiel.wav" WAVE
TRACK 01 AUDIO
TITLE "2. Aufzug. Vorspiel"
PERFORMER "Richard Wagner / Kna, Greindl, Hotter, Mödl, Windgassen, Adam, Neidlinger"
FLAGS DCP
INDEX 01 00:00:00
FILE "02. 2. Aufzug. Die Zeit ist da (Klingsor).wav" WAVE
TRACK 02 AUDIO
TITLE "2. Aufzug. Die Zeit ist da (Klingsor)"
PERFORMER "Richard Wagner / Kna, Greindl, Hotter, Mödl, Windgassen, Adam, Neidlinger"
FLAGS DCP
INDEX 01 00:00:00
FILE "03. 2. Aufzug. Ach! Ach! Tiefe Nacht! Wahnsinn! (Kundry).wav" WAVE
TRACK 03 AUDIO
TITLE "2. Aufzug. Ach! Ach! Tiefe Nacht! Wahnsinn! (Kundry)"
PERFORMER "Richard Wagner / Kna, Greindl, Hotter, Mödl, Windgassen, Adam, Neidlinger"
FLAGS DCP
INDEX 01 00:00:00
FILE "04. 2. Aufzug. Furchtbare Not! (Klingsor).wav" WAVE
TRACK 04 AUDIO
TITLE "2. Aufzug. Furchtbare Not! (Klingsor)"
PERFORMER "Richard Wagner / Kna, Greindl, Hotter, Mödl, Windgassen, Adam, Neidlinger"
FLAGS DCP
INDEX 01 00:00:00
FILE "05. 2. Aufzug. Seine Wunde trägt jeder nach heim! (Klingsor).wav" WAVE
TRACK 05 AUDIO
TITLE "2. Aufzug. Seine Wunde trägt jeder nach heim! (Klingsor)"
PERFORMER "Richard Wagner / Kna, Greindl, Hotter, Mödl, Windgassen, Adam, Neidlinger"
FLAGS DCP
INDEX 01 00:00:00
FILE "06. 2. Aufzug. Hier war das Tosen (Zaubermädchen).wav" WAVE
TRACK 06 AUDIO
TITLE "2. Aufzug. Hier war das Tosen (Zaubermädchen)"
PERFORMER "Richard Wagner / Kna, Greindl, Hotter, Mödl, Windgassen, Adam, Neidlinger"
FLAGS DCP
INDEX 01 00:00:00
FILE "07. 2. Aufzug. Ihr schönen Kinder, mußt' ich sie nicht schlagen (Parsifal).wav" WAVE
TRACK 07 AUDIO
TITLE "2. Aufzug. Ihr schönen Kinder, mußt' ich sie nicht schlagen (Parsifal)"
PERFORMER "Richard Wagner / Kna, Greindl, Hotter, Mödl, Windgassen, Adam, Neidlinger"
FLAGS DCP
INDEX 01 00:00:00
FILE "08. 2. Aufzug. Komm! Komm! Holder Knabe! (Zaubermädchen).wav" WAVE
TRACK 08 AUDIO
TITLE "2. Aufzug. Komm! Komm! Holder Knabe! (Zaubermädchen)"
PERFORMER "Richard Wagner / Kna, Greindl, Hotter, Mödl, Windgassen, Adam, Neidlinger"
FLAGS DCP
INDEX 01 00:00:00
FILE "09. 2. Aufzug. Parsifal! Weile! (Kundry).wav" WAVE
TRACK 09 AUDIO
TITLE "2. Aufzug. Parsifal! Weile! (Kundry)"
PERFORMER "Richard Wagner / Kna, Greindl, Hotter, Mödl, Windgassen, Adam, Neidlinger"
FLAGS DCP
INDEX 01 00:00:00
FILE "10. 2. Aufzug. Dies alles hab' ich nur geträumt (Parsifal).wav" WAVE
TRACK 10 AUDIO
TITLE "2. Aufzug. Dies alles hab' ich nur geträumt (Parsifal)"
PERFORMER "Richard Wagner / Kna, Greindl, Hotter, Mödl, Windgassen, Adam, Neidlinger"
FLAGS DCP
INDEX 01 00:00:00
FILE "11. 2. Aufzug. Ich sah das Kind an seiner Mutter Brust (Kundry).wav" WAVE
TRACK 11 AUDIO
TITLE "2. Aufzug. Ich sah das Kind an seiner Mutter Brust (Kundry)"
PERFORMER "Richard Wagner / Kna, Greindl, Hotter, Mödl, Windgassen, Adam, Neidlinger"
FLAGS DCP
INDEX 01 00:00:00
FILE "12. 2. Aufzug. Wehe! Wehe! Was tat ich (Parsifal).wav" WAVE
TRACK 12 AUDIO
TITLE "2. Aufzug. Wehe! Wehe! Was tat ich (Parsifal)"
PERFORMER "Richard Wagner / Kna, Greindl, Hotter, Mödl, Windgassen, Adam, Neidlinger"
FLAGS DCP
INDEX 01 00:00:00
FILE "13. 2. Aufzug. Amfortas! Die Wunde! (Parsifal).wav" WAVE
TRACK 13 AUDIO
TITLE "2. Aufzug. Amfortas! Die Wunde! (Parsifal)"
PERFORMER "Richard Wagner / Kna, Greindl, Hotter, Mödl, Windgassen, Adam, Neidlinger"
FLAGS DCP
INDEX 01 00:00:00
FILE "14. 2. Aufzug. Gelobter Held! (Kundry).wav" WAVE
TRACK 14 AUDIO
TITLE "2. Aufzug. Gelobter Held! (Kundry)"
PERFORMER "Richard Wagner / Kna, Greindl, Hotter, Mödl, Windgassen, Adam, Neidlinger"
FLAGS DCP
INDEX 01 00:00:00
FILE "15. 2. Aufzug. Nun such' ich ihn von Welt zu Welt (Kundry).wav" WAVE
TRACK 15 AUDIO
TITLE "2. Aufzug. Nun such' ich ihn von Welt zu Welt (Kundry)"
PERFORMER "Richard Wagner / Kna, Greindl, Hotter, Mödl, Windgassen, Adam, Neidlinger"
FLAGS DCP
INDEX 01 00:00:00
FILE "16. 2. Aufzug. Auf Ewigkeit wärst du verdammt (Parsifal).wav" WAVE
TRACK 16 AUDIO
TITLE "2. Aufzug. Auf Ewigkeit wärst du verdammt (Parsifal)"
PERFORMER "Richard Wagner / Kna, Greindl, Hotter, Mödl, Windgassen, Adam, Neidlinger"
FLAGS DCP
INDEX 01 00:00:00
FILE "17. 2. Aufzug. Vergeh', unseliges Weib! (Parsifal).wav" WAVE
TRACK 17 AUDIO
TITLE "2. Aufzug. Vergeh', unseliges Weib! (Parsifal)"
PERFORMER "Richard Wagner / Kna, Greindl, Hotter, Mödl, Windgassen, Adam, Neidlinger"
FLAGS DCP
INDEX 01 00:00:00
FILE "18. 2. Aufzug. Halt da! Dich bann' ich mit der rechten Wehr! (Klingsor).wav" WAVE
TRACK 18 AUDIO
TITLE "2. Aufzug. Halt da! Dich bann' ich mit der rechten Wehr! (Klingsor)"
PERFORMER "Richard Wagner / Kna, Greindl, Hotter, Mödl, Windgassen, Adam, Neidlinger"
FLAGS DCP
INDEX 01 00:00:00
TRACK 19 AUDIO
TITLE "3. Aufzug. Vorspiel"
PERFORMER "Richard Wagner / Kna, Greindl, Hotter, Mödl, Windgassen, Adam, Neidlinger"
FLAGS DCP
INDEX 00 02:33:58
FILE "19. 3. Aufzug. Vorspiel.wav" WAVE
INDEX 01 00:00:00

Disk 4

REM DATE 2005
REM DISCID 8C11EE0B
REM COMMENT "ExactAudioCopy v1.0b3"
PERFORMER "Richard Wagner / Kna, Greindl, Hotter, Mödl, Windgassen, Adam, Neidlinger"
TITLE "Parsifal - Bayreuth 1954 Disk 4 of 4"
FILE "01. 3. Aufzug. Von dorther kam das Stöhnen (Gurnemanz).wav" WAVE
TRACK 01 AUDIO
TITLE "3. Aufzug. Von dorther kam das Stöhnen (Gurnemanz)"
PERFORMER "Richard Wagner / Kna, Greindl, Hotter, Mödl, Windgassen, Adam, Neidlinger"
FLAGS DCP
INDEX 01 00:00:00
FILE "02. 3. Aufzug. Dienen! Dienen! (Kundry).wav" WAVE
TRACK 02 AUDIO
TITLE "3. Aufzug. Dienen! Dienen! (Kundry)"
PERFORMER "Richard Wagner / Kna, Greindl, Hotter, Mödl, Windgassen, Adam, Neidlinger"
FLAGS DCP
INDEX 01 00:00:00
FILE "03. 3. Aufzug. Heil dir, mein Gast! (Gurnemanz).wav" WAVE
TRACK 03 AUDIO
TITLE "3. Aufzug. Heil dir, mein Gast! (Gurnemanz)"
PERFORMER "Richard Wagner / Kna, Greindl, Hotter, Mödl, Windgassen, Adam, Neidlinger"
FLAGS DCP
INDEX 01 00:00:00
FILE "04. 3. Aufzug. Der Irrnis und der Leiden Pfade (Parsifal).wav" WAVE
TRACK 04 AUDIO
TITLE "3. Aufzug. Der Irrnis und der Leiden Pfade (Parsifal)"
PERFORMER "Richard Wagner / Kna, Greindl, Hotter, Mödl, Windgassen, Adam, Neidlinger"
FLAGS DCP
INDEX 01 00:00:00
FILE "05. 3. Aufzug. O Gnade! Höchstes Heil! (Gurnemanz).wav" WAVE
TRACK 05 AUDIO
TITLE "3. Aufzug. O Gnade! Höchstes Heil! (Gurnemanz)"
PERFORMER "Richard Wagner / Kna, Greindl, Hotter, Mödl, Windgassen, Adam, Neidlinger"
FLAGS DCP
INDEX 01 00:00:00
FILE "06. 3. Aufzug. Und ich, ich bin's, der all dies Elend schuf! (Parsifal).wav" WAVE
TRACK 06 AUDIO
TITLE "3. Aufzug. Und ich, ich bin's, der all dies Elend schuf! (Parsifal)"
PERFORMER "Richard Wagner / Kna, Greindl, Hotter, Mödl, Windgassen, Adam, Neidlinger"
FLAGS DCP
INDEX 01 00:00:00
FILE "07. 3. Aufzug. Du netztest mir die Füße (Parsifal).wav" WAVE
TRACK 07 AUDIO
TITLE "3. Aufzug. Du netztest mir die Füße (Parsifal)"
PERFORMER "Richard Wagner / Kna, Greindl, Hotter, Mödl, Windgassen, Adam, Neidlinger"
FLAGS DCP
INDEX 01 00:00:00
FILE "08. 3. Aufzug. Wie dünkt mich doch die Aue heut' so schön! (Parsifal).wav" WAVE
TRACK 08 AUDIO
TITLE "3. Aufzug. Wie dünkt mich doch die Aue heut' so schön! (Parsifal)"
PERFORMER "Richard Wagner / Kna, Greindl, Hotter, Mödl, Windgassen, Adam, Neidlinger"
FLAGS DCP
INDEX 01 00:00:00
FILE "09. 3. Aufzug. Geleiten wir im bergenden Schrein (Chorus).wav" WAVE
TRACK 09 AUDIO
TITLE "3. Aufzug. Geleiten wir im bergenden Schrein (Chorus)"
PERFORMER "Richard Wagner / Kna, Greindl, Hotter, Mödl, Windgassen, Adam, Neidlinger"
FLAGS DCP
INDEX 01 00:00:00
FILE "10. 3. Aufzug. Ja, Wehe! Wehe! Weh' über mich! (Amfortas).wav" WAVE
TRACK 10 AUDIO
TITLE "3. Aufzug. Ja, Wehe! Wehe! Weh' über mich! (Amfortas)"
PERFORMER "Richard Wagner / Kna, Greindl, Hotter, Mödl, Windgassen, Adam, Neidlinger"
FLAGS DCP
INDEX 01 00:00:00
FILE "11. 3. Aufzug. Nur eine Waffe taugt (Parsifal).wav" WAVE
TRACK 11 AUDIO
TITLE "3. Aufzug. Nur eine Waffe taugt (Parsifal)"
PERFORMER "Richard Wagner / Kna, Greindl, Hotter, Mödl, Windgassen, Adam, Neidlinger"
FLAGS DCP
INDEX 01 00:00:00



Показать сообщения:    

Текущее время: 07-Дек 13:40

Часовой пояс: UTC + 3


Вы не можете начинать темы
Вы не можете отвечать на сообщения
Вы не можете редактировать свои сообщения
Вы не можете удалять свои сообщения
Вы не можете голосовать в опросах
Вы не можете прикреплять файлы к сообщениям
Вы не можете скачивать файлы