[TR24][SM][OF] Georg Philipp Telemann - Trios & Quatuors - La Reveuse - 2014 (Classical)


Статистика раздачи [Обновить пиров]
Размер:  1.12 GB   |    Зарегистрирован:  8 месяцев 19 дней   |    Скачан:  1 раз

Полного источника не было: 26 дней

 
   
 
 
 

[Цитировать]

·
·
Georg Philipp Telemann (1681-1767)Жанр: Chamber Music
Носитель: Official Digital Download
Год издания диска: 2014
Издатель(лейбл): Mirare
Номер по каталогу: MIR 267
Продолжительность: 01:01:18
Наличие сканов в содержимом раздачи: cover & booklet
Контейнер: FLAC (*.flac)
Разрядность: 24/96
Количество каналов: 2.0
Формат: tracks
Источник: highresaudio.com
Pелизер: WEB (thanks to the original customer)
La RêveuseFlorence Bolton · Benjamin Perrot

Треклист

Sonata II en sol mineur TWV 43:g1
(Quadri, Hambourg 1730)
Pour traverso, violon, viole et basse continue
01 Andante 3’13
02 Allegro 2’49
03 Largo 3’19
04 Allegro 3’00
Trio V en sol mineur TWV 42:g1
(Sechs Trios, Francfort 1718)
Pour violon, viole et basse continue
05 Adagio 2’43
06 Vivace 2’14
07 Adagio 3’04
08 Allegro 3’02
Sonata en Sol Majeur TWV 43:G12
Pour traverso, 2 violes et basse continue
09 Dolce 3’18
10 Allegro 3’58
11 Soave 3’41
12 Vivace 3’20
Sonata en la mineur TWV 42:a7
Pour traverso, viole et basse continue
13 Andante 2’19
14 Allegro 1’35
15 Adagio 2’05
16 Allegro 1’53
Trio II en Sol Majeur TWV 42:G6
(Essercizii Musici, Hambourg 1727)
Pour viole, clavecin obligato et basse continue
17 Andante 2’01
18 Allegro 2’02
19 Largo 5’17
20 Presto 1’28
21 Chaconne “Modéré” en mi mineur TWV 43:e4 4’55
extrait du Quatuor N°6, Paris 1738
Pour traverso, violon, viole et basse continue

La Rêveuse

·
·
·
·
·
·
·
·Serge Saitta traverso
Stéphan Dudermel violon
Florence Bolton viole de gambe
Emily Audouin viole de gambe continuo
Pierre Gallon clavecin
Benjamin Perrot théorbe
·
·
·
·
·
·
·

Dynamic Range Meter

foobar2000 1.2.6 / Dynamic Range Meter 1.1.1
log date: 2015-04-02 00:41:36
--------------------------------------------------------------------------------
Analyzed: La Rêveuse / Telemann: Trios & Quatuors
--------------------------------------------------------------------------------
DR Peak RMS Duration Track
--------------------------------------------------------------------------------
DR12 -3.23 dB -18.98 dB 3:13 01-Sonata II in G Minor, TWV 43:g1 (Quadri, Hambourg 1730): I. Andante
DR12 -1.92 dB -17.51 dB 2:49 02-Sonata II in G Minor, TWV 43:g1 (Quadri, Hambourg 1730): II. Allegro
DR11 -2.64 dB -19.25 dB 3:20 03-Sonata II in G Minor, TWV 43:g1 (Quadri, Hambourg 1730): III. Largo
DR12 -1.79 dB -17.38 dB 2:59 04-Sonata II in G Minor, TWV 43:g1 (Quadri, Hambourg 1730): IV. Allegro
DR12 -4.03 dB -21.57 dB 2:44 05-Trio V in G Minor, TWV 42:g1 (Sechs Trios, Francfort 1718): I. Adagio
DR12 -1.92 dB -20.47 dB 2:14 06-Trio V in G Minor, TWV 42:g1 (Sechs Trios, Francfort 1718): II. Vivace
DR11 -6.59 dB -22.44 dB 3:04 07-Trio V in G Minor, TWV 42:g1 (Sechs Trios, Francfort 1718): III. Adagio
DR13 -1.72 dB -19.48 dB 3:02 08-Trio V in G Minor, TWV 42:g1 (Sechs Trios, Francfort 1718): IV. Allegro
DR11 -2.76 dB -17.25 dB 3:18 09-Sonata in G Major, TWV43:G12: I. Dolce
DR12 -1.88 dB -17.68 dB 3:58 10-Sonata in G Major, TWV43:G12: II. Allegro
DR10 -5.50 dB -19.36 dB 3:41 11-Sonata in G Major, TWV43:G12: III. Soave
DR11 -2.42 dB -17.17 dB 3:20 12-Sonata in G Major, TWV43:G12: IV. Vivace
DR12 -0.31 dB -17.37 dB 2:20 13-Sonata in A Minor, TWV 42:a7: I. Andante
DR10 -2.85 dB -15.84 dB 1:36 14-Sonata in A Minor, TWV 42:a7: II. Allegro
DR9 -5.54 dB -19.64 dB 2:05 15-Sonata in A Minor, TWV 42:a7: III. Adagio
DR12 -1.28 dB -17.57 dB 1:53 16-Sonata in A Minor, TWV 42:a7: IV. Allegro
DR11 -6.83 dB -21.50 dB 2:02 17-Trio II in G Major, TWV 42:G6 (Essercizii Musici, Hambourg 1727): I. Andante
DR11 -5.94 dB -21.37 dB 2:02 18-Trio II in G Major, TWV 42:G6 (Essercizii Musici, Hambourg 1727): II. Allegro
DR12 -6.63 dB -23.60 dB 5:17 19-Trio II in G Major, TWV 42:G6 (Essercizii Musici, Hambourg 1727): III. Largo
DR12 -5.95 dB -21.27 dB 1:28 20-Trio II in G Major, TWV 42:G6 (Essercizii Musici, Hambourg 1727): IV. Presto
DR12 -3.37 dB -19.18 dB 4:55 21-Chaconne “Modéré” en mi mineur TWV 43:e4 (extrait du Quatuor N°6, Paris 1738)
--------------------------------------------------------------------------------
Number of tracks: 21
Official DR value: DR11
Samplerate: 96000 Hz
Channels: 2
Bits per sample: 24
Bitrate: 2595 kbps
Codec: FLAC
================================================================================
[teatrix.ru].t20816.torrent 
Торрент: Зарегистрирован [ 2016-03-20 00:46 ] · E06E935FC4AFA47BD7081DEE5E7A6403A0F2E975

Скачать .torrent

Скачать

14 KB

Статус: проверено
Скачан: 1 раз
Размер: 1.12 GB
terms.php



Быстрый ответ

Имя:

      
Для отправки сообщений необходимо включить JavaScript
Показать сообщения:    

Текущее время: 08-Дек 09:01

Часовой пояс: UTC + 3


Вы можете начинать темы
Вы можете отвечать на сообщения
Вы не можете редактировать свои сообщения
Вы не можете удалять свои сообщения
Вы не можете голосовать в опросах
Вы не можете прикреплять файлы к сообщениям
Вы можете скачивать файлы